  0
SECTION
  2
HEADER
  9
$ACADVER
  1
AC1015
  9
$ACADMAINTVER
 70
    18
  9
$DWGCODEPAGE
  3
ANSI_1252
  9
$INSBASE
 10
0.0
 20
0.0
 30
0.0
  9
$EXTMIN
 10
0.0
 20
0.0
 30
0.0
  9
$EXTMAX
 10
297.0
 20
210.0
 30
0.0
  9
$LIMMIN
 10
0.0
 20
0.0
  9
$LIMMAX
 10
297.0
 20
210.0
  9
$ORTHOMODE
 70
     0
  9
$REGENMODE
 70
     1
  9
$FILLMODE
 70
     1
  9
$QTEXTMODE
 70
     0
  9
$MIRRTEXT
 70
     0
  9
$LTSCALE
 40
1.0
  9
$ATTMODE
 70
     1
  9
$TEXTSIZE
 40
0.2
  9
$TRACEWID
 40
0.05
  9
$TEXTSTYLE
  7
Standard
  9
$CLAYER
  8
0
  9
$CELTYPE
  6
ByLayer
  9
$CECOLOR
 62
   256
  9
$CELTSCALE
 40
1.0
  9
$DISPSILH
 70
     0
  9
$DIMSCALE
 40
1.0
  9
$DIMASZ
 40
1.799999999999999
  9
$DIMEXO
 40
0.0625
  9
$DIMDLI
 40
0.38
  9
$DIMRND
 40
0.0
  9
$DIMDLE
 40
0.0
  9
$DIMEXE
 40
0.18
  9
$DIMTP
 40
0.0
  9
$DIMTM
 40
0.0
  9
$DIMTXT
 40
0.3499999940395355
  9
$DIMCEN
 40
0.09
  9
$DIMTSZ
 40
0.0
  9
$DIMTOL
 70
     0
  9
$DIMLIM
 70
     0
  9
$DIMTIH
 70
     1
  9
$DIMTOH
 70
     1
  9
$DIMSE1
 70
     0
  9
$DIMSE2
 70
     0
  9
$DIMTAD
 70
     0
  9
$DIMZIN
 70
     0
  9
$DIMBLK
  1

  9
$DIMASO
 70
     1
  9
$DIMSHO
 70
     1
  9
$DIMPOST
  1

  9
$DIMAPOST
  1

  9
$DIMALT
 70
     0
  9
$DIMALTD
 70
     2
  9
$DIMALTF
 40
25.4
  9
$DIMLFAC
 40
1.0
  9
$DIMTOFL
 70
     0
  9
$DIMTVP
 40
0.0
  9
$DIMTIX
 70
     0
  9
$DIMSOXD
 70
     0
  9
$DIMSAH
 70
     0
  9
$DIMBLK1
  1

  9
$DIMBLK2
  1

  9
$DIMSTYLE
  2
Standard
  9
$DIMCLRD
 70
     0
  9
$DIMCLRE
 70
     0
  9
$DIMCLRT
 70
     0
  9
$DIMTFAC
 40
1.0
  9
$DIMGAP
 40
0.09
  9
$DIMJUST
 70
     0
  9
$DIMSD1
 70
     0
  9
$DIMSD2
 70
     0
  9
$DIMTOLJ
 70
     1
  9
$DIMTZIN
 70
     0
  9
$DIMALTZ
 70
     0
  9
$DIMALTTZ
 70
     0
  9
$DIMUPT
 70
     0
  9
$DIMDEC
 70
     4
  9
$DIMTDEC
 70
     4
  9
$DIMALTU
 70
     2
  9
$DIMALTTD
 70
     2
  9
$DIMTXSTY
  7
Standard
  9
$DIMAUNIT
 70
     0
  9
$DIMADEC
 70
     0
  9
$DIMALTRND
 40
0.0
  9
$DIMAZIN
 70
     0
  9
$DIMDSEP
 70
    46
  9
$DIMATFIT
 70
     3
  9
$DIMFRAC
 70
     0
  9
$DIMLDRBLK
  1

  9
$DIMLUNIT
 70
     2
  9
$DIMLWD
 70
    -2
  9
$DIMLWE
 70
    -2
  9
$DIMTMOVE
 70
     0
  9
$LUNITS
 70
     2
  9
$LUPREC
 70
     4
  9
$SKETCHINC
 40
0.1
  9
$FILLETRAD
 40
0.0
  9
$AUNITS
 70
     0
  9
$AUPREC
 70
     0
  9
$MENU
  1
.
  9
$ELEVATION
 40
0.0
  9
$PELEVATION
 40
0.0
  9
$THICKNESS
 40
0.0
  9
$LIMCHECK
 70
     0
  9
$CHAMFERA
 40
0.0
  9
$CHAMFERB
 40
0.0
  9
$CHAMFERC
 40
0.0
  9
$CHAMFERD
 40
0.0
  9
$SKPOLY
 70
     0
  9
$TDCREATE
 40
2454105.727857662
  9
$TDUCREATE
 40
2454105.686190996
  9
$TDUPDATE
 40
2454105.727857662
  9
$TDUUPDATE
 40
2454105.686190996
  9
$TDINDWG
 40
0.0000765046
  9
$TDUSRTIMER
 40
0.0000765046
  9
$USRTIMER
 70
     1
  9
$ANGBASE
 50
0.0
  9
$ANGDIR
 70
     0
  9
$PDMODE
 70
     0
  9
$PDSIZE
 40
0.0
  9
$PLINEWID
 40
0.0
  9
$SPLFRAME
 70
     0
  9
$SPLINETYPE
 70
     6
  9
$SPLINESEGS
 70
     8
  9
$HANDSEED
  5
B66
  9
$SURFTAB1
 70
     6
  9
$SURFTAB2
 70
     6
  9
$SURFTYPE
 70
     6
  9
$SURFU
 70
     6
  9
$SURFV
 70
     6
  9
$UCSBASE
  2

  9
$UCSNAME
  2

  9
$UCSORG
 10
0.0
 20
0.0
 30
0.0
  9
$UCSXDIR
 10
1.0
 20
0.0
 30
0.0
  9
$UCSYDIR
 10
0.0
 20
1.0
 30
0.0
  9
$UCSORTHOREF
  2

  9
$UCSORTHOVIEW
 70
     0
  9
$UCSORGTOP
 10
0.0
 20
0.0
 30
0.0
  9
$UCSORGBOTTOM
 10
0.0
 20
0.0
 30
0.0
  9
$UCSORGLEFT
 10
0.0
 20
0.0
 30
0.0
  9
$UCSORGRIGHT
 10
0.0
 20
0.0
 30
0.0
  9
$UCSORGFRONT
 10
0.0
 20
0.0
 30
0.0
  9
$UCSORGBACK
 10
0.0
 20
0.0
 30
0.0
  9
$PUCSBASE
  2

  9
$PUCSNAME
  2

  9
$PUCSORG
 10
0.0
 20
0.0
 30
0.0
  9
$PUCSXDIR
 10
1.0
 20
0.0
 30
0.0
  9
$PUCSYDIR
 10
0.0
 20
1.0
 30
0.0
  9
$PUCSORTHOREF
  2

  9
$PUCSORTHOVIEW
 70
     0
  9
$PUCSORGTOP
 10
0.0
 20
0.0
 30
0.0
  9
$PUCSORGBOTTOM
 10
0.0
 20
0.0
 30
0.0
  9
$PUCSORGLEFT
 10
0.0
 20
0.0
 30
0.0
  9
$PUCSORGRIGHT
 10
0.0
 20
0.0
 30
0.0
  9
$PUCSORGFRONT
 10
0.0
 20
0.0
 30
0.0
  9
$PUCSORGBACK
 10
0.0
 20
0.0
 30
0.0
  9
$USERI1
 70
     0
  9
$USERI2
 70
     0
  9
$USERI3
 70
     0
  9
$USERI4
 70
     0
  9
$USERI5
 70
     0
  9
$USERR1
 40
0.0
  9
$USERR2
 40
0.0
  9
$USERR3
 40
0.0
  9
$USERR4
 40
0.0
  9
$USERR5
 40
0.0
  9
$WORLDVIEW
 70
     1
  9
$SHADEDGE
 70
     3
  9
$SHADEDIF
 70
    70
  9
$TILEMODE
 70
     1
  9
$MAXACTVP
 70
    64
  9
$PINSBASE
 10
0.0
 20
0.0
 30
0.0
  9
$PLIMCHECK
 70
     0
  9
$PEXTMIN
 10
0.0
 20
0.0
 30
0.0
  9
$PEXTMAX
 10
297.0
 20
210.0
 30
0.0
  9
$PLIMMIN
 10
0.0
 20
0.0
  9
$PLIMMAX
 10
297.0
 20
210.0
  9
$UNITMODE
 70
     0
  9
$VISRETAIN
 70
     1
  9
$PLINEGEN
 70
     0
  9
$PSLTSCALE
 70
     1
  9
$TREEDEPTH
 70
  3020
  9
$CMLSTYLE
  2
Standard
  9
$CMLJUST
 70
     0
  9
$CMLSCALE
 40
1.0
  9
$PROXYGRAPHICS
 70
     1
  9
$MEASUREMENT
 70
     1
  9
$CELWEIGHT
370
    -1
  9
$ENDCAPS
280
     0
  9
$JOINSTYLE
280
     0
  9
$LWDISPLAY
290
     0
  9
$INSUNITS
 70
     0
  9
$HYPERLINKBASE
  1

  9
$STYLESHEET
  1

  9
$XEDIT
290
     1
  9
$CEPSNTYPE
380
     0
  9
$PSTYLEMODE
290
     1
  9
$FINGERPRINTGUID
  2
{18711C00-FCDE-42BE-89BC-E338427BDEEF}
  9
$VERSIONGUID
  2
{1BD7FA87-247E-45E7-A055-8B8F44AEB59C}
  9
$EXTNAMES
290
     1
  9
$PSVPSCALE
 40
0.0
  9
$OLESTARTUP
290
     0
  0
ENDSEC
  0
SECTION
  2
CLASSES
  0
CLASS
  1
ACDBDICTIONARYWDFLT
  2
AcDbDictionaryWithDefault
  3
ObjectDBX Classes
 90
        0
280
     0
281
     0
  0
CLASS
  1
MATERIAL
  2
AcDbMaterial
  3
ObjectDBX Classes
 90
     1024
280
     0
281
     0
  0
CLASS
  1
VISUALSTYLE
  2
AcDbVisualStyle
  3
ObjectDBX Classes
 90
     4095
280
     0
281
     0
  0
CLASS
  1
TABLESTYLE
  2
AcDbTableStyle
  3
ObjectDBX Classes
 90
     4095
280
     0
281
     0
  0
CLASS
  1
DICTIONARYVAR
  2
AcDbDictionaryVar
  3
ObjectDBX Classes
 90
        0
280
     0
281
     0
  0
CLASS
  1
ACDBPLACEHOLDER
  2
AcDbPlaceHolder
  3
ObjectDBX Classes
 90
        0
280
     0
281
     0
  0
CLASS
  1
LAYOUT
  2
AcDbLayout
  3
ObjectDBX Classes
 90
        0
280
     0
281
     0
  0
ENDSEC
  0
SECTION
  2
TABLES
  0
TABLE
  2
VPORT
  5
8
330
0
100
AcDbSymbolTable
 70
     1
  0
VPORT
  5
28
330
8
100
AcDbSymbolTableRecord
100
AcDbViewportTableRecord
  2
*Active
 70
     0
 10
0.0
 20
0.0
 11
1.0
 21
1.0
 12
148.5
 22
105.0
 13
0.0
 23
0.0
 14
1.0
 24
1.0
 15
0.0
 25
0.0
 16
0.0
 26
0.0
 36
1.0
 17
0.0
 27
0.0
 37
0.0
 40
210.0
 41
1.414285714285714
 42
50.0
 43
0.0
 44
0.0
 50
0.0
 51
0.0
 71
     0
 72
   100
 73
     1
 74
     1
 75
     0
 76
     0
 77
     0
 78
     0
281
     0
 65
     1
110
0.0
120
0.0
130
0.0
111
1.0
121
0.0
131
0.0
112
0.0
122
1.0
132
0.0
 79
     0
146
0.0
  0
ENDTAB
  0
TABLE
  2
LTYPE
  5
5
330
0
100
AcDbSymbolTable
 70
    59
  0
LTYPE
  5
29
330
5
100
AcDbSymbolTableRecord
100
AcDbLinetypeTableRecord
  2
ByBlock
 70
     0
  3

 72
    65
 73
     0
 40
0.0
  0
LTYPE
  5
2A
330
5
100
AcDbSymbolTableRecord
100
AcDbLinetypeTableRecord
  2
ByLayer
 70
     0
  3

 72
    65
 73
     0
 40
0.0
  0
LTYPE
  5
2B
330
5
100
AcDbSymbolTableRecord
100
AcDbLinetypeTableRecord
  2
Continuous
 70
     0
  3
Solid line
 72
    65
 73
     0
 40
0.0
  0
LTYPE
  5
40
330
5
100
AcDbSymbolTableRecord
100
AcDbLinetypeTableRecord
  2
BY_STANDARD
 70
     0
  3
By Standard ____________    ____    ____   _
 72
    65
 73
     6
 40
1.240299999999999
 49
0.6614
 74
     0
 49
-0.0827
 74
     0
 49
0.1654
 74
     0
 49
-0.0827
 74
     0
 49
0.1654
 74
     0
 49
-0.0827
 74
     0
  0
LTYPE
  5
41
330
5
100
AcDbSymbolTableRecord
100
AcDbLinetypeTableRecord
  2
CHAIN
 70
     0
  3
Chain ____ _ ____ _ ____ _ ____ _ ____ _ ____
 72
    65
 73
     4
 40
0.7087
 49
0.4724000000000001
 74
     0
 49
-0.0591
 74
     0
 49
0.1181
 74
     0
 49
-0.0591
 74
     0
  0
LTYPE
  5
42
330
5
100
AcDbSymbolTableRecord
100
AcDbLinetypeTableRecord
  2
DASH_DOT
 70
     0
  3
Dash dot __ . __ . __ . __ . __ . __ . __ . __
 72
    65
 73
     4
 40
0.37
 49
0.24
 74
     0
 49
-0.06
 74
     0
 49
0.01
 74
     0
 49
-0.06
 74
     0
  0
LTYPE
  5
43
330
5
100
AcDbSymbolTableRecord
100
AcDbLinetypeTableRecord
  2
DOUBLE_DASH_DOT
 70
     0
  3
Double-Dash Dot __ __ . __ __ . __ __ . __ _
 72
    65
 73
     6
 40
0.4398
 49
0.24
 74
     0
 49
-0.06
 74
     0
 49
0.0098
 74
     0
 49
-0.06
 74
     0
 49
0.01
 74
     0
 49
-0.06
 74
     0
  0
LTYPE
  5
44
330
5
100
AcDbSymbolTableRecord
100
AcDbLinetypeTableRecord
  2
DASH_TRIPLE_DOT
 70
     0
  3
Dash Triple-Dot _ . . . _ . . . _ . . . _
 72
    65
 73
     8
 40
0.51
 49
0.24
 74
     0
 49
-0.06
 74
     0
 49
0.01
 74
     0
 49
-0.06
 74
     0
 49
0.01
 74
     0
 49
-0.06
 74
     0
 49
0.01
 74
     0
 49
-0.06
 74
     0
  0
LTYPE
  5
45
330
5
100
AcDbSymbolTableRecord
100
AcDbLinetypeTableRecord
  2
DASHED
 70
     0
  3
Dashed __ __ __ __ __ __ __ __ __ __ __ __ __ _
 72
    65
 73
     2
 40
0.2067
 49
0.1654
 74
     0
 49
-0.0413
 74
     0
  0
LTYPE
  5
46
330
5
100
AcDbSymbolTableRecord
100
AcDbLinetypeTableRecord
  2
DASH_DOUBLE_DOT
 70
     0
  3
Dash Double-Dot __ . . __ . . __ . . __ . .
 72
    65
 73
     6
 40
0.4398
 49
0.24
 74
     0
 49
-0.06
 74
     0
 49
0.0098
 74
     0
 49
-0.06
 74
     0
 49
0.01
 74
     0
 49
-0.06
 74
     0
  0
LTYPE
  5
47
330
5
100
AcDbSymbolTableRecord
100
AcDbLinetypeTableRecord
  2
DASHED_SPACE
 70
     0
  3
Dashed Space __ __ __ __ __ __ __ __ __ __ __ _
 72
    65
 73
     2
 40
0.2067
 49
0.1654
 74
     0
 49
-0.0413
 74
     0
  0
LTYPE
  5
48
330
5
100
AcDbSymbolTableRecord
100
AcDbLinetypeTableRecord
  2
DOTTED
 70
     0
  3
Dotted . . . . . . . . . . . . . . . . . . . . 
 72
    65
 73
     2
 40
0.0482
 49
0.0069
 74
     0
 49
-0.0413
 74
     0
  0
LTYPE
  5
49
330
5
100
AcDbSymbolTableRecord
100
AcDbLinetypeTableRecord
  2
DOUBLE_DASH_CHAIN
 70
     0
  3
Double-Dash Chain ______  __  __  ______  __  _
 72
    65
 73
     6
 40
1.240299999999999
 49
0.6614
 74
     0
 49
-0.0827
 74
     0
 49
0.1654
 74
     0
 49
-0.0827
 74
     0
 49
0.1654
 74
     0
 49
-0.0827
 74
     0
  0
LTYPE
  5
4B
330
5
100
AcDbSymbolTableRecord
100
AcDbLinetypeTableRecord
  2
DOUBLE_DASH_DOUBLE_DOT
 70
     0
  3
Double-Dash Double-dot _ _ . . _ _ . . _
 72
    65
 73
     8
 40
0.7400000000000001
 49
0.24
 74
     0
 49
-0.06
 74
     0
 49
0.24
 74
     0
 49
-0.06
 74
     0
 49
0.01
 74
     0
 49
-0.06
 74
     0
 49
0.01
 74
     0
 49
-0.06
 74
     0
  0
LTYPE
  5
4C
330
5
100
AcDbSymbolTableRecord
100
AcDbLinetypeTableRecord
  2
DOUBLE_DASH_TRIPLE_DOT
 70
     0
  3
Double Dash Triple Dot __ __ . . . __ __ . .
 72
    65
 73
    10
 40
0.8100000000000001
 49
0.24
 74
     0
 49
-0.06
 74
     0
 49
0.24
 74
     0
 49
-0.06
 74
     0
 49
0.01
 74
     0
 49
-0.06
 74
     0
 49
0.01
 74
     0
 49
-0.06
 74
     0
 49
0.01
 74
     0
 49
-0.06
 74
     0
  0
LTYPE
  5
4D
330
5
100
AcDbSymbolTableRecord
100
AcDbLinetypeTableRecord
  2
LONG_DASH_DOTTED
 70
     0
  3
Long Dash Dotted ____ . ____ . ____ . ____ . _
 72
    65
 73
     4
 40
0.3543
 49
0.2362
 74
     0
 49
-0.0295
 74
     0
 49
0.0591
 74
     0
 49
-0.0295
 74
     0
  0
LTYPE
  5
4E
330
5
100
AcDbSymbolTableRecord
100
AcDbLinetypeTableRecord
  2
LONG_DASH_DOUBLE_DOT
 70
     0
  3
Long Dash Double Dot ________  .  .  ________  
 72
    65
 73
     6
 40
0.6799999999999999
 49
0.48
 74
     0
 49
-0.06
 74
     0
 49
0.01
 74
     0
 49
-0.06
 74
     0
 49
0.01
 74
     0
 49
-0.06
 74
     0
  0
LTYPE
  5
4F
330
5
100
AcDbSymbolTableRecord
100
AcDbLinetypeTableRecord
  2
LONG_DASH_TRIPLE_DOT
 70
     0
  3
Long Dash Triple Dot ____ ... ____ ... ____
 72
    65
 73
     8
 40
0.3689
 49
0.2362
 74
     0
 49
-0.0295
 74
     0
 49
0.0049
 74
     0
 49
-0.0295
 74
     0
 49
0.0049
 74
     0
 49
-0.0295
 74
     0
 49
0.0049
 74
     0
 49
-0.0295
 74
     0
  0
LTYPE
  5
50
330
5
100
AcDbSymbolTableRecord
100
AcDbLinetypeTableRecord
  2
BORDER
 70
     0
  3
Border __ __ . __ __ . __ __ . __ __ . __ __ .
 72
    65
 73
     6
 40
1.75
 49
0.5
 74
     0
 49
-0.25
 74
     0
 49
0.5
 74
     0
 49
-0.25
 74
     0
 49
0.0
 74
     0
 49
-0.25
 74
     0
  0
LTYPE
  5
51
330
5
100
AcDbSymbolTableRecord
100
AcDbLinetypeTableRecord
  2
BORDER2
 70
     0
  3
Border (.5x) __.__.__.__.__.__.__.__.__.__.__.
 72
    65
 73
     6
 40
0.875
 49
0.25
 74
     0
 49
-0.125
 74
     0
 49
0.25
 74
     0
 49
-0.125
 74
     0
 49
0.0
 74
     0
 49
-0.125
 74
     0
  0
LTYPE
  5
52
330
5
100
AcDbSymbolTableRecord
100
AcDbLinetypeTableRecord
  2
BORDERX2
 70
     0
  3
Border (2x) ____  ____  .  ____  ____  .  ___
 72
    65
 73
     6
 40
3.5
 49
1.0
 74
     0
 49
-0.5
 74
     0
 49
1.0
 74
     0
 49
-0.5
 74
     0
 49
0.0
 74
     0
 49
-0.5
 74
     0
  0
LTYPE
  5
53
330
5
100
AcDbSymbolTableRecord
100
AcDbLinetypeTableRecord
  2
CENTER
 70
     0
  3
Center ____ _ ____ _ ____ _ ____ _ ____ _ ____
 72
    65
 73
     4
 40
2.0
 49
1.25
 74
     0
 49
-0.25
 74
     0
 49
0.25
 74
     0
 49
-0.25
 74
     0
  0
LTYPE
  5
54
330
5
100
AcDbSymbolTableRecord
100
AcDbLinetypeTableRecord
  2
CENTER2
 70
     0
  3
Center (.5x) ___ _ ___ _ ___ _ ___ _ ___ _ ___
 72
    65
 73
     4
 40
1.125
 49
0.75
 74
     0
 49
-0.125
 74
     0
 49
0.125
 74
     0
 49
-0.125
 74
     0
  0
LTYPE
  5
55
330
5
100
AcDbSymbolTableRecord
100
AcDbLinetypeTableRecord
  2
CENTERX2
 70
     0
  3
Center (2x) ________  __  ________  __  _____
 72
    65
 73
     4
 40
4.0
 49
2.5
 74
     0
 49
-0.5
 74
     0
 49
0.5
 74
     0
 49
-0.5
 74
     0
  0
LTYPE
  5
56
330
5
100
AcDbSymbolTableRecord
100
AcDbLinetypeTableRecord
  2
DASHDOT2
 70
     0
  3
Dash dot (.5x) _._._._._._._._._._._._._._._.
 72
    65
 73
     4
 40
0.5
 49
0.25
 74
     0
 49
-0.125
 74
     0
 49
0.0
 74
     0
 49
-0.125
 74
     0
  0
LTYPE
  5
57
330
5
100
AcDbSymbolTableRecord
100
AcDbLinetypeTableRecord
  2
DASHDOTX2
 70
     0
  3
Dash dot (2x) ____  .  ____  .  ____  .  ___
 72
    65
 73
     4
 40
2.0
 49
1.0
 74
     0
 49
-0.5
 74
     0
 49
0.0
 74
     0
 49
-0.5
 74
     0
  0
LTYPE
  5
59
330
5
100
AcDbSymbolTableRecord
100
AcDbLinetypeTableRecord
  2
DASHED2
 70
     0
  3
Dashed (.5x) _ _ _ _ _ _ _ _ _ _ _ _ _ _ _ _ _
 72
    65
 73
     2
 40
0.375
 49
0.25
 74
     0
 49
-0.125
 74
     0
  0
LTYPE
  5
5A
330
5
100
AcDbSymbolTableRecord
100
AcDbLinetypeTableRecord
  2
DASHEDX2
 70
     0
  3
Dashed (2x) ____  ____  ____  ____  ____  ___
 72
    65
 73
     2
 40
1.5
 49
1.0
 74
     0
 49
-0.5
 74
     0
  0
LTYPE
  5
5B
330
5
100
AcDbSymbolTableRecord
100
AcDbLinetypeTableRecord
  2
DIVIDE
 70
     0
  3
Divide ____ . . ____ . . ____ . . ____ . . ____
 72
    65
 73
     6
 40
1.25
 49
0.5
 74
     0
 49
-0.25
 74
     0
 49
0.0
 74
     0
 49
-0.25
 74
     0
 49
0.0
 74
     0
 49
-0.25
 74
     0
  0
LTYPE
  5
5C
330
5
100
AcDbSymbolTableRecord
100
AcDbLinetypeTableRecord
  2
DIVIDE2
 70
     0
  3
Divide (.5x) __..__..__..__..__..__..__..__.._
 72
    65
 73
     6
 40
0.625
 49
0.25
 74
     0
 49
-0.125
 74
     0
 49
0.0
 74
     0
 49
-0.125
 74
     0
 49
0.0
 74
     0
 49
-0.125
 74
     0
  0
LTYPE
  5
5D
330
5
100
AcDbSymbolTableRecord
100
AcDbLinetypeTableRecord
  2
DIVIDEX2
 70
     0
  3
Divide (2x) ________  .  .  ________  .  .  _
 72
    65
 73
     6
 40
2.5
 49
1.0
 74
     0
 49
-0.5
 74
     0
 49
0.0
 74
     0
 49
-0.5
 74
     0
 49
0.0
 74
     0
 49
-0.5
 74
     0
  0
LTYPE
  5
5E
330
5
100
AcDbSymbolTableRecord
100
AcDbLinetypeTableRecord
  2
DOT
 70
     0
  3
Dot . . . . . . . . . . . . . . . . . . . . . .
 72
    65
 73
     2
 40
0.25
 49
0.0
 74
     0
 49
-0.25
 74
     0
  0
LTYPE
  5
5F
330
5
100
AcDbSymbolTableRecord
100
AcDbLinetypeTableRecord
  2
DOT2
 70
     0
  3
Dot (.5x) .....................................
 72
    65
 73
     2
 40
0.125
 49
0.0
 74
     0
 49
-0.125
 74
     0
  0
LTYPE
  5
60
330
5
100
AcDbSymbolTableRecord
100
AcDbLinetypeTableRecord
  2
DOTX2
 70
     0
  3
Dot (2x) .  .  .  .  .  .  .  .  .  .  .  .  . 
 72
    65
 73
     2
 40
0.5
 49
0.0
 74
     0
 49
-0.5
 74
     0
  0
LTYPE
  5
61
330
5
100
AcDbSymbolTableRecord
100
AcDbLinetypeTableRecord
  2
HIDDEN
 70
     0
  3
Hidden __ __ __ __ __ __ __ __ __ __ __ __ __ _
 72
    65
 73
     2
 40
0.375
 49
0.25
 74
     0
 49
-0.125
 74
     0
  0
LTYPE
  5
62
330
5
100
AcDbSymbolTableRecord
100
AcDbLinetypeTableRecord
  2
HIDDEN2
 70
     0
  3
Hidden (.5x) _ _ _ _ _ _ _ _ _ _ _ _ _ _ _ _ _
 72
    65
 73
     2
 40
0.1875
 49
0.125
 74
     0
 49
-0.0625
 74
     0
  0
LTYPE
  5
63
330
5
100
AcDbSymbolTableRecord
100
AcDbLinetypeTableRecord
  2
HIDDENX2
 70
     0
  3
Hidden (2x) ____ ____ ____ ____ ____ ____ ____
 72
    65
 73
     2
 40
0.75
 49
0.5
 74
     0
 49
-0.25
 74
     0
  0
LTYPE
  5
64
330
5
100
AcDbSymbolTableRecord
100
AcDbLinetypeTableRecord
  2
PHANTOM
 70
     0
  3
Phantom ______  __  __  ______  __  __  ______
 72
    65
 73
     6
 40
2.5
 49
1.25
 74
     0
 49
-0.25
 74
     0
 49
0.25
 74
     0
 49
-0.25
 74
     0
 49
0.25
 74
     0
 49
-0.25
 74
     0
  0
LTYPE
  5
65
330
5
100
AcDbSymbolTableRecord
100
AcDbLinetypeTableRecord
  2
PHANTOM2
 70
     0
  3
Phantom (.5x) ___ _ _ ___ _ _ ___ _ _ ___ _ _
 72
    65
 73
     6
 40
1.25
 49
0.625
 74
     0
 49
-0.125
 74
     0
 49
0.125
 74
     0
 49
-0.125
 74
     0
 49
0.125
 74
     0
 49
-0.125
 74
     0
  0
LTYPE
  5
66
330
5
100
AcDbSymbolTableRecord
100
AcDbLinetypeTableRecord
  2
PHANTOMX2
 70
     0
  3
Phantom (2x) ____________    ____    ____   _
 72
    65
 73
     6
 40
5.0
 49
2.5
 74
     0
 49
-0.5
 74
     0
 49
0.5
 74
     0
 49
-0.5
 74
     0
 49
0.5
 74
     0
 49
-0.5
 74
     0
  0
LTYPE
  5
67
330
5
100
AcDbSymbolTableRecord
100
AcDbLinetypeTableRecord
  2
ACAD_ISO02W100
 70
     0
  3
ISO dash __ __ __ __ __ __ __ __ __ __ __ __ __
 72
    65
 73
     2
 40
0.59
 49
0.47
 74
     0
 49
-0.12
 74
     0
  0
LTYPE
  5
68
330
5
100
AcDbSymbolTableRecord
100
AcDbLinetypeTableRecord
  2
ACAD_ISO03W100
 70
     0
  3
ISO dash space __    __    __    __    __    __
 72
    65
 73
     2
 40
1.179999999999999
 49
0.47
 74
     0
 49
-0.71
 74
     0
  0
LTYPE
  5
69
330
5
100
AcDbSymbolTableRecord
100
AcDbLinetypeTableRecord
  2
ACAD_ISO04W100
 70
     0
  3
ISO long-dash dot ____ . ____ . ____ . ____ . _
 72
    65
 73
     4
 40
1.179999999999999
 49
0.9399999999999998
 74
     0
 49
-0.12
 74
     0
 49
0.0
 74
     0
 49
-0.12
 74
     0
  0
LTYPE
  5
6A
330
5
100
AcDbSymbolTableRecord
100
AcDbLinetypeTableRecord
  2
ACAD_ISO05W100
 70
     0
  3
ISO long-dash double-dot ____ .. ____ .. ____ .
 72
    65
 73
     6
 40
1.299999999999999
 49
0.9399999999999998
 74
     0
 49
-0.12
 74
     0
 49
0.0
 74
     0
 49
-0.12
 74
     0
 49
0.0
 74
     0
 49
-0.12
 74
     0
  0
LTYPE
  5
6B
330
5
100
AcDbSymbolTableRecord
100
AcDbLinetypeTableRecord
  2
ACAD_ISO06W100
 70
     0
  3
ISO long-dash triple-dot ____ ... ____ ... ____
 72
    65
 73
     8
 40
1.419999999999999
 49
0.9399999999999998
 74
     0
 49
-0.12
 74
     0
 49
0.0
 74
     0
 49
-0.12
 74
     0
 49
0.0
 74
     0
 49
-0.12
 74
     0
 49
0.0
 74
     0
 49
-0.12
 74
     0
  0
LTYPE
  5
6C
330
5
100
AcDbSymbolTableRecord
100
AcDbLinetypeTableRecord
  2
ACAD_ISO07W100
 70
     0
  3
ISO dot . . . . . . . . . . . . . . . . . . . .
 72
    65
 73
     2
 40
0.12
 49
0.0
 74
     0
 49
-0.12
 74
     0
  0
LTYPE
  5
6D
330
5
100
AcDbSymbolTableRecord
100
AcDbLinetypeTableRecord
  2
ACAD_ISO08W100
 70
     0
  3
ISO long-dash short-dash ____ __ ____ __ ____ _
 72
    65
 73
     4
 40
0.95
 49
0.47
 74
     0
 49
-0.12
 74
     0
 49
0.24
 74
     0
 49
-0.12
 74
     0
  0
LTYPE
  5
6E
330
5
100
AcDbSymbolTableRecord
100
AcDbLinetypeTableRecord
  2
ACAD_ISO09W100
 70
     0
  3
ISO long-dash double-short-dash ____ __ __ ____
 72
    65
 73
     6
 40
1.31
 49
0.47
 74
     0
 49
-0.12
 74
     0
 49
0.24
 74
     0
 49
-0.12
 74
     0
 49
0.24
 74
     0
 49
-0.12
 74
     0
  0
LTYPE
  5
6F
330
5
100
AcDbSymbolTableRecord
100
AcDbLinetypeTableRecord
  2
ACAD_ISO10W100
 70
     0
  3
ISO dash dot __ . __ . __ . __ . __ . __ . __ .
 72
    65
 73
     4
 40
0.71
 49
0.47
 74
     0
 49
-0.12
 74
     0
 49
0.0
 74
     0
 49
-0.12
 74
     0
  0
LTYPE
  5
70
330
5
100
AcDbSymbolTableRecord
100
AcDbLinetypeTableRecord
  2
ACAD_ISO11W100
 70
     0
  3
ISO double-dash dot __ __ . __ __ . __ __ . __ 
 72
    65
 73
     6
 40
1.299999999999999
 49
0.47
 74
     0
 49
-0.12
 74
     0
 49
0.47
 74
     0
 49
-0.12
 74
     0
 49
0.0
 74
     0
 49
-0.12
 74
     0
  0
LTYPE
  5
71
330
5
100
AcDbSymbolTableRecord
100
AcDbLinetypeTableRecord
  2
ACAD_ISO12W100
 70
     0
  3
ISO dash double-dot __ . . __ . . __ . . __ . .
 72
    65
 73
     6
 40
0.8299999999999998
 49
0.47
 74
     0
 49
-0.12
 74
     0
 49
0.0
 74
     0
 49
-0.12
 74
     0
 49
0.0
 74
     0
 49
-0.12
 74
     0
  0
LTYPE
  5
72
330
5
100
AcDbSymbolTableRecord
100
AcDbLinetypeTableRecord
  2
ACAD_ISO13W100
 70
     0
  3
ISO double-dash double-dot __ __ . . __ __ . . 
 72
    65
 73
     8
 40
1.419999999999999
 49
0.47
 74
     0
 49
-0.12
 74
     0
 49
0.47
 74
     0
 49
-0.12
 74
     0
 49
0.0
 74
     0
 49
-0.12
 74
     0
 49
0.0
 74
     0
 49
-0.12
 74
     0
  0
LTYPE
  5
73
330
5
100
AcDbSymbolTableRecord
100
AcDbLinetypeTableRecord
  2
ACAD_ISO14W100
 70
     0
  3
ISO dash triple-dot __ . . . __ . . . __ . . . 
 72
    65
 73
     8
 40
0.95
 49
0.47
 74
     0
 49
-0.12
 74
     0
 49
0.0
 74
     0
 49
-0.12
 74
     0
 49
0.0
 74
     0
 49
-0.12
 74
     0
 49
0.0
 74
     0
 49
-0.12
 74
     0
  0
LTYPE
  5
74
330
5
100
AcDbSymbolTableRecord
100
AcDbLinetypeTableRecord
  2
ACAD_ISO15W100
 70
     0
  3
ISO double-dash triple-dot __ __ . . . __ __ . 
 72
    65
 73
    10
 40
1.539999999999999
 49
0.47
 74
     0
 49
-0.12
 74
     0
 49
0.47
 74
     0
 49
-0.12
 74
     0
 49
0.0
 74
     0
 49
-0.12
 74
     0
 49
0.0
 74
     0
 49
-0.12
 74
     0
 49
0.0
 74
     0
 49
-0.12
 74
     0
  0
LTYPE
  5
77
330
5
100
AcDbSymbolTableRecord
100
AcDbLinetypeTableRecord
  2
FENCELINE1
 70
     0
  3
Fenceline circle ----0-----0----0-----0----0---
 72
    65
 73
     4
 40
1.45
 49
0.25
 74
     0
 49
-0.1
 74
     4
 75
   133
340
76
 46
0.1
 50
0.0
 44
-0.1
 45
0.0
 49
-0.1
 74
     0
 49
1.0
 74
     0
  0
LTYPE
  5
78
330
5
100
AcDbSymbolTableRecord
100
AcDbLinetypeTableRecord
  2
FENCELINE2
 70
     0
  3
Fenceline square ----[]-----[]----[]-----[]----
 72
    65
 73
     4
 40
1.45
 49
0.25
 74
     0
 49
-0.1
 74
     4
 75
   132
340
76
 46
0.1
 50
0.0
 44
-0.1
 45
0.0
 49
-0.1
 74
     0
 49
1.0
 74
     0
  0
LTYPE
  5
79
330
5
100
AcDbSymbolTableRecord
100
AcDbLinetypeTableRecord
  2
TRACKS
 70
     0
  3
Tracks -|-|-|-|-|-|-|-|-|-|-|-|-|-|-|-|-|-|-|-|
 72
    65
 73
     2
 40
0.3
 49
0.15
 74
     4
 75
   130
340
76
 46
0.25
 50
0.0
 44
0.0
 45
0.0
 49
0.15
 74
     0
  0
LTYPE
  5
7A
330
5
100
AcDbSymbolTableRecord
100
AcDbLinetypeTableRecord
  2
BATTING
 70
     0
  3
Batting SSSSSSSSSSSSSSSSSSSSSSSSSSSSSSSSSSSSSSS
 72
    65
 73
     4
 40
0.4001000000000001
 49
0.0001
 74
     0
 49
-0.1
 74
     4
 75
   134
340
76
 46
0.1
 50
0.0
 44
-0.1
 45
0.0
 49
-0.2
 74
     4
 75
   134
340
76
 46
0.1
 50
180.0
 44
0.1
 45
0.0
 49
-0.1
 74
     0
  0
LTYPE
  5
7B
330
5
100
AcDbSymbolTableRecord
100
AcDbLinetypeTableRecord
  2
HOT_WATER_SUPPLY
 70
     0
  3
Hot water supply ---- HW ---- HW ---- HW ----
 72
    65
 73
     3
 40
0.9
 49
0.5
 74
     0
 49
-0.2
 74
     2
 75
     0
340
26
 46
0.1
 50
0.0
 44
-0.1
 45
-0.05
  9
HW
 49
-0.2
 74
     0
  0
LTYPE
  5
7C
330
5
100
AcDbSymbolTableRecord
100
AcDbLinetypeTableRecord
  2
GAS_LINE
 70
     0
  3
Gas line ----GAS----GAS----GAS----GAS----GAS---
 72
    65
 73
     3
 40
0.95
 49
0.5
 74
     0
 49
-0.2
 74
     2
 75
     0
340
26
 46
0.1
 50
0.0
 44
-0.1
 45
-0.05
  9
GAS
 49
-0.25
 74
     0
  0
LTYPE
  5
7D
330
5
100
AcDbSymbolTableRecord
100
AcDbLinetypeTableRecord
  2
ZIGZAG
 70
     0
  3
Zig zag /\/\/\/\/\/\/\/\/\/\/\/\/\/\/\/\/\/\/\/
 72
    65
 73
     4
 40
0.8001000000000001
 49
0.0001
 74
     0
 49
-0.2
 74
     4
 75
   131
340
76
 46
0.2
 50
0.0
 44
-0.2
 45
0.0
 49
-0.4
 74
     4
 75
   131
340
76
 46
0.2
 50
180.0
 44
0.2
 45
0.0
 49
-0.2
 74
     0
  0
ENDTAB
  0
TABLE
  2
LAYER
  5
2
330
0
100
AcDbSymbolTable
 70
    74
  0
LAYER
  5
25
330
2
100
AcDbSymbolTableRecord
100
AcDbLayerTableRecord
  2
0
 70
     0
 62
     7
  6
Continuous
370
    -3
390
F
  0
LAYER
  5
92
330
2
100
AcDbSymbolTableRecord
100
AcDbLayerTableRecord
  2
Bemaßungen(TC_020513_DIN)
 70
     0
 62
     7
  6
Continuous
370
    25
390
F
  0
LAYER
  5
AF
330
2
100
AcDbSymbolTableRecord
100
AcDbLayerTableRecord
  2
Schraffur
 70
     0
 62
   179
  6
Continuous
370
     9
390
F
  0
LAYER
  5
B1
330
2
100
AcDbSymbolTableRecord
100
AcDbLayerTableRecord
  2
Sichtbare Kanten(TC_020513_DIN)
 70
     0
 62
     7
  6
Continuous
370
    50
390
F
  0
LAYER
  5
B4
330
2
100
AcDbSymbolTableRecord
100
AcDbLayerTableRecord
  2
Skizziergeometrie(ISO)
 70
     0
 62
     7
  6
Continuous
370
    50
390
F
  0
LAYER
  5
B7
330
2
100
AcDbSymbolTableRecord
100
AcDbLayerTableRecord
  2
Skizzierlinie(TC_020513_DIN)
 70
     1
 62
     3
  6
Continuous
370
    18
390
F
  0
LAYER
  5
B9
330
2
100
AcDbSymbolTableRecord
100
AcDbLayerTableRecord
  2
Stich 1-Linien(TC_020513_DIN)
 70
     0
 62
     7
  6
DASHED_SPACE
370
    25
390
F
  0
LAYER
  5
BC
330
2
100
AcDbSymbolTableRecord
100
AcDbLayerTableRecord
  2
Symbole(ISO)
 70
     0
 62
     7
  6
Continuous
370
    25
390
F
  0
LAYER
  5
6C6
330
2
100
AcDbSymbolTableRecord
100
AcDbLayerTableRecord
  2
Defpoints
 70
     0
 62
     7
  6
Continuous
290
     0
370
    -3
390
F
  0
ENDTAB
  0
TABLE
  2
STYLE
  5
3
330
0
100
AcDbSymbolTable
 70
    17
  0
STYLE
  5
26
330
3
100
AcDbSymbolTableRecord
100
AcDbTextStyleTableRecord
  2
Standard
 70
     0
 40
0.0
 41
1.0
 50
0.0
 71
     0
 42
0.2
  3
ARIAL.TTF
  4

1001
ACAD
1000
Arial
1071
      256
  0
STYLE
  5
76
330
3
100
AcDbSymbolTableRecord
100
AcDbTextStyleTableRecord
  2

 70
     1
 40
0.0
 41
1.0
 50
0.0
 71
     0
 42
0.2
  3
ltypeshp.shx
  4

  0
STYLE
  5
C6
330
3
100
AcDbSymbolTableRecord
100
AcDbTextStyleTableRecord
  2
Aktuell-BSI
 70
     0
 40
0.0
 41
1.0
 50
0.0
 71
     0
 42
0.2
  3
ARIAL.TTF
  4

1001
ACAD
1000
Arial
1071
      256
  0
STYLE
  5
C7
330
3
100
AcDbSymbolTableRecord
100
AcDbTextStyleTableRecord
  2
Kopie von TC 5 mm
 70
     0
 40
0.0
 41
1.199999928474426
 50
0.0
 71
     0
 42
0.2
  3
ARIAL.TTF
  4

1001
ACAD
1000
Arial
1071
      256
  0
STYLE
  5
C8
330
3
100
AcDbSymbolTableRecord
100
AcDbTextStyleTableRecord
  2
STANDARD-TC_020513_DIN
 70
     0
 40
0.0
 41
1.0
 50
0.0
 71
     0
 42
0.2
  3
ARIAL.TTF
  4

1001
ACAD
1000
Arial
1071
      256
  0
STYLE
  5
C9
330
3
100
AcDbSymbolTableRecord
100
AcDbTextStyleTableRecord
  2
STANDARD-TC_020513_DINGroßer Text
 70
     0
 40
0.0
 41
1.0
 50
0.0
 71
     0
 42
0.2
  3
ARIAL.TTF
  4

1001
ACAD
1000
Arial
1071
      256
  0
STYLE
  5
CA
330
3
100
AcDbSymbolTableRecord
100
AcDbTextStyleTableRecord
  2
STANDARD-TC_020513_DINNach Layer
 70
     0
 40
0.0
 41
1.0
 50
0.0
 71
     0
 42
0.2
  3
ARIAL.TTF
  4

1001
ACAD
1000
Arial
1071
      256
  0
STYLE
  5
CB
330
3
100
AcDbSymbolTableRecord
100
AcDbTextStyleTableRecord
  2
TC 2_5 mm
 70
     0
 40
0.0
 41
0.899999976158142
 50
0.0
 71
     0
 42
0.2
  3
ARIAL.TTF
  4

1001
ACAD
1000
Arial
1071
      256
  0
STYLE
  5
CC
330
3
100
AcDbSymbolTableRecord
100
AcDbTextStyleTableRecord
  2
TC 3_5 mm
 70
     0
 40
0.0
 41
0.7999999523162842
 50
0.0
 71
     0
 42
0.2
  3
ARIAL.TTF
  4

1001
ACAD
1000
Arial
1071
      256
  0
STYLE
  5
CD
330
3
100
AcDbSymbolTableRecord
100
AcDbTextStyleTableRecord
  2
TC 3_5 mmGroßer Text
 70
     0
 40
0.0
 41
0.899999976158142
 50
0.0
 71
     0
 42
0.2
  3
ARIAL.TTF
  4

1001
ACAD
1000
Arial
1071
      256
  0
STYLE
  5
CE
330
3
100
AcDbSymbolTableRecord
100
AcDbTextStyleTableRecord
  2
TC 3_5 mmNach Layer
 70
     0
 40
0.0
 41
0.899999976158142
 50
0.0
 71
     0
 42
0.2
  3
ARIAL.TTF
  4

1001
ACAD
1000
Arial
1071
      256
  0
STYLE
  5
CF
330
3
100
AcDbSymbolTableRecord
100
AcDbTextStyleTableRecord
  2
TC 4 mm
 70
     0
 40
0.0
 41
1.199999928474426
 50
0.0
 71
     0
 42
0.2
  3
ARIAL.TTF
  4

1001
ACAD
1000
Arial
1071
      256
  0
STYLE
  5
D0
330
3
100
AcDbSymbolTableRecord
100
AcDbTextStyleTableRecord
  2
TC 5 mm
 70
     0
 40
0.0
 41
0.899999976158142
 50
0.0
 71
     0
 42
0.2
  3
ARIAL.TTF
  4

1001
ACAD
1000
Arial
1071
      256
  0
STYLE
  5
D1
330
3
100
AcDbSymbolTableRecord
100
AcDbTextStyleTableRecord
  2
TC 5 mmNach Layer
 70
     0
 40
0.0
 41
0.899999976158142
 50
0.0
 71
     0
 42
0.2
  3
ARIAL.TTF
  4

1001
ACAD
1000
Arial
1071
      256
  0
STYLE
  5
D2
330
3
100
AcDbSymbolTableRecord
100
AcDbTextStyleTableRecord
  2
TC 7 mm
 70
     0
 40
0.0
 41
0.899999976158142
 50
0.0
 71
     0
 42
0.2
  3
ARIAL.TTF
  4

1001
ACAD
1000
Arial
1071
      256
  0
STYLE
  5
FB
330
3
100
AcDbSymbolTableRecord
100
AcDbTextStyleTableRecord
  2
TC 2_5 mm-ISOCPEUR
 70
     0
 40
0.0
 41
0.899999976158142
 50
0.0
 71
     0
 42
0.2
  3
isocpeur.ttf
  4

1001
ACAD
1000
ISOCPEUR
1071
      256
  0
STYLE
  5
FF
330
3
100
AcDbSymbolTableRecord
100
AcDbTextStyleTableRecord
  2
TC 3_5 mm-ISOCPEUR
 70
     0
 40
0.0
 41
0.899999976158142
 50
0.0
 71
     0
 42
0.2
  3
isocpeur.ttf
  4

1001
ACAD
1000
ISOCPEUR
1071
      256
  0
ENDTAB
  0
TABLE
  2
VIEW
  5
6
330
0
100
AcDbSymbolTable
 70
     0
  0
ENDTAB
  0
TABLE
  2
UCS
  5
7
330
0
100
AcDbSymbolTable
 70
     0
  0
ENDTAB
  0
TABLE
  2
APPID
  5
9
330
0
100
AcDbSymbolTable
 70
     1
  0
APPID
  5
27
330
9
100
AcDbSymbolTableRecord
100
AcDbRegAppTableRecord
  2
ACAD
 70
     0
  0
ENDTAB
  0
TABLE
  2
DIMSTYLE
  5
A
330
0
100
AcDbSymbolTable
 70
    17
100
AcDbDimStyleTable
 71
     2
340
D3
340
3F
  0
DIMSTYLE
105
3F
330
A
100
AcDbSymbolTableRecord
100
AcDbDimStyleTableRecord
  2
Standard
 70
     0
340
26
  0
DIMSTYLE
105
D3
102
{ACAD_REACTORS
330
6C5
330
78B
330
84B
330
906
330
9C6
330
A8B
102
}
330
A
100
AcDbSymbolTableRecord
100
AcDbDimStyleTableRecord
  2
STANDARD-TC_020513_DIN
 70
     0
 41
2.5
 42
1.0
 43
6.0
 44
2.0
 45
0.00000001
 46
10.0
 73
     0
 74
     0
 77
     1
 78
    12
 79
     3
140
3.5
143
0.03937
147
0.8
171
     3
172
     1
176
     7
177
     7
178
     7
271
     2
272
     2
274
     3
278
    44
340
C6
371
    25
372
    25
  0
DIMSTYLE
105
D4
330
A
100
AcDbSymbolTableRecord
100
AcDbDimStyleTableRecord
  2
STANDARD-TC_020513_DIN$7
 70
     0
 41
2.5
 42
1.0
 43
6.0
 44
2.0
 45
0.00000001
 46
10.0
 73
     0
 74
     0
 77
     1
 78
    12
 79
     3
140
3.5
143
0.03937
147
0.8
171
     3
172
     1
176
     7
177
     7
178
     7
271
     2
272
     2
274
     3
278
    44
340
C6
371
    25
372
    25
  0
DIMSTYLE
105
D5
330
A
100
AcDbSymbolTableRecord
100
AcDbDimStyleTableRecord
  2
STANDARD-TC_020513_DINGroßer Text
 70
     0
 41
5.0
 42
0.0
 43
6.0
 44
3.174999999999999
 45
0.00000001
 46
10.0
 73
     0
 74
     0
 77
     1
140
5.25
143
0.03937
146
0.6666666666666666
147
0.8
171
     3
172
     1
176
     7
177
     7
178
     7
271
     2
272
     2
274
     3
278
    44
340
C9
371
    25
372
    25
  0
DIMSTYLE
105
D6
330
A
100
AcDbSymbolTableRecord
100
AcDbDimStyleTableRecord
  2
STANDARD-TC_020513_DINGroßer Text$7
 70
     0
 41
5.0
 42
0.0
 43
6.0
 44
3.174999999999999
 45
0.00000001
 46
10.0
 73
     0
 74
     0
 77
     1
140
5.25
143
0.03937
146
0.6666666666666666
147
0.8
171
     3
172
     1
176
     7
177
     7
178
     7
271
     2
272
     2
274
     3
278
    44
340
C9
371
    25
372
    25
  0
DIMSTYLE
105
D7
330
A
100
AcDbSymbolTableRecord
100
AcDbDimStyleTableRecord
  2
Teccon Kiel Stil
 70
     0
 41
2.5
 42
0.0
 43
7.0
 44
2.0
 45
0.00000001
 46
10.0
 73
     0
 74
     0
 77
     1
 78
    12
 79
     3
140
3.5
143
0.03937
147
1.0
171
     3
172
     1
176
     7
177
     7
178
     7
179
     1
271
     1
272
     2
274
     3
278
    44
340
CC
371
    25
372
    25
  0
DIMSTYLE
105
D8
330
A
100
AcDbSymbolTableRecord
100
AcDbDimStyleTableRecord
  2
Teccon Kiel Stil$7
 70
     0
 41
2.5
 42
0.0
 43
7.0
 44
2.0
 45
0.00000001
 46
10.0
 73
     0
 74
     0
 77
     1
 78
    12
 79
     3
140
3.5
143
0.03937
147
1.0
171
     3
172
     1
176
     7
177
     7
178
     7
179
     1
271
     1
272
     2
274
     3
278
    44
340
CC
371
    25
372
    25
  0
DIMSTYLE
105
D9
330
A
100
AcDbSymbolTableRecord
100
AcDbDimStyleTableRecord
  2
Teccon Kiel StilGroßer Text
 70
     0
 41
5.0
 42
0.0
 43
7.0
 44
2.0
 45
0.00000001
 46
10.0
 73
     0
 74
     0
 77
     1
 78
    12
 79
     3
140
5.25
143
0.03937
146
0.6666666666666666
147
1.0
171
     3
172
     1
176
     7
177
     7
178
     7
179
     1
271
     1
272
     2
274
     3
278
    44
340
CD
371
    25
372
    25
  0
DIMSTYLE
105
DA
330
A
100
AcDbSymbolTableRecord
100
AcDbDimStyleTableRecord
  2
Teccon Kiel StilGroßer Text$7
 70
     0
 41
5.0
 42
0.0
 43
7.0
 44
2.0
 45
0.00000001
 46
10.0
 73
     0
 74
     0
 77
     1
 78
    12
 79
     3
140
5.25
143
0.03937
146
0.6666666666666666
147
1.0
171
     3
172
     1
176
     7
177
     7
178
     7
179
     1
271
     1
272
     2
274
     3
278
    44
340
CD
371
    25
372
    25
  0
DIMSTYLE
105
DB
330
A
100
AcDbSymbolTableRecord
100
AcDbDimStyleTableRecord
  2
Führungslinie-Ursprungsindikator(ISO)
 70
     0
 41
2.5
340
26
342
DC
  0
DIMSTYLE
105
E3
330
A
100
AcDbSymbolTableRecord
100
AcDbDimStyleTableRecord
  2
Führungslinie-Ursprungsindikator(TC_020513_DIN)
 70
     0
 41
2.5
340
26
342
DC
  0
DIMSTYLE
105
EE
330
A
100
AcDbSymbolTableRecord
100
AcDbDimStyleTableRecord
  2
Führungslinie - Bezugsstelle(ISO)
 70
     0
 41
2.5
340
26
342
DC
  0
DIMSTYLE
105
EF
330
A
100
AcDbSymbolTableRecord
100
AcDbDimStyleTableRecord
  2
Führungslinie - Bezugsstelle(TC_020513_DIN)
 70
     0
 41
2.5
340
26
342
DC
  0
DIMSTYLE
105
F0
330
A
100
AcDbSymbolTableRecord
100
AcDbDimStyleTableRecord
  2
Führungslinie - Punkt(ISO)
 70
     0
 41
2.5
340
26
342
DC
  0
DIMSTYLE
105
F1
330
A
100
AcDbSymbolTableRecord
100
AcDbDimStyleTableRecord
  2
Führungslinie - Punkt(TC_020513_DIN)
 70
     0
 41
2.5
340
26
342
DC
  0
DIMSTYLE
105
F2
330
A
100
AcDbSymbolTableRecord
100
AcDbDimStyleTableRecord
  2
Führungslinie(ISO)
 70
     0
 41
2.5
340
26
342
DC
  0
DIMSTYLE
105
F3
330
A
100
AcDbSymbolTableRecord
100
AcDbDimStyleTableRecord
  2
Führungslinie(TC_020513_DIN)
 70
     0
 41
2.5
340
26
342
DC
  0
ENDTAB
  0
TABLE
  2
BLOCK_RECORD
  5
1
330
0
100
AcDbSymbolTable
 70
    17
  0
BLOCK_RECORD
  5
37
330
1
100
AcDbSymbolTableRecord
100
AcDbBlockTableRecord
  2
*Model_Space
340
3A
  0
BLOCK_RECORD
  5
33
330
1
100
AcDbSymbolTableRecord
100
AcDbBlockTableRecord
  2
*Paper_Space
340
36
  0
BLOCK_RECORD
  5
3B
330
1
100
AcDbSymbolTableRecord
100
AcDbBlockTableRecord
  2
*Paper_Space0
340
3E
  0
BLOCK_RECORD
  5
DC
330
1
100
AcDbSymbolTableRecord
100
AcDbBlockTableRecord
  2
_Closed
340
0
  0
BLOCK_RECORD
  5
E4
330
1
100
AcDbSymbolTableRecord
100
AcDbBlockTableRecord
  2
DatumFilled45
340
0
  0
BLOCK_RECORD
  5
F4
330
1
100
AcDbSymbolTableRecord
100
AcDbBlockTableRecord
  2
DIN 6930 (Toleranzklasse)
340
0
  0
BLOCK_RECORD
  5
105
330
1
100
AcDbSymbolTableRecord
100
AcDbBlockTableRecord
  2
nicht bemaßte Radien
340
0
  0
BLOCK_RECORD
  5
10E
330
1
100
AcDbSymbolTableRecord
100
AcDbBlockTableRecord
  2
DIN ISO 13715 (Werkstückkanten)
340
0
  0
BLOCK_RECORD
  5
132
330
1
100
AcDbSymbolTableRecord
100
AcDbBlockTableRecord
  2
EN 12329 (Chromatierung)
340
0
  0
BLOCK_RECORD
  5
13A
330
1
100
AcDbSymbolTableRecord
100
AcDbBlockTableRecord
  2
ISO 2768 (zul. Abweichung)
340
0
  0
BLOCK_RECORD
  5
143
330
1
100
AcDbSymbolTableRecord
100
AcDbBlockTableRecord
  2
DIN ISO 1302 (Oberflächen)
340
0
  0
BLOCK_RECORD
  5
14B
330
1
100
AcDbSymbolTableRecord
100
AcDbBlockTableRecord
  2
Ränder Ilme Rahmen A4 quer
340
0
102
{BLKREFS
331
155
102
}
  0
BLOCK_RECORD
  5
156
330
1
100
AcDbSymbolTableRecord
100
AcDbBlockTableRecord
  2
Schriftfelder Ilme
340
0
102
{BLKREFS
331
1C9
102
}
  0
BLOCK_RECORD
  5
6C7
330
1
100
AcDbSymbolTableRecord
100
AcDbBlockTableRecord
  2
*D11
340
0
  0
BLOCK_RECORD
  5
78C
330
1
100
AcDbSymbolTableRecord
100
AcDbBlockTableRecord
  2
*D12
340
0
  0
BLOCK_RECORD
  5
84C
330
1
100
AcDbSymbolTableRecord
100
AcDbBlockTableRecord
  2
*D13
340
0
  0
BLOCK_RECORD
  5
907
330
1
100
AcDbSymbolTableRecord
100
AcDbBlockTableRecord
  2
*D14
340
0
  0
BLOCK_RECORD
  5
9C7
330
1
100
AcDbSymbolTableRecord
100
AcDbBlockTableRecord
  2
*D15
340
0
  0
BLOCK_RECORD
  5
A8C
330
1
100
AcDbSymbolTableRecord
100
AcDbBlockTableRecord
  2
*D16
340
0
  0
ENDTAB
  0
ENDSEC
  0
SECTION
  2
BLOCKS
  0
BLOCK
  5
38
330
37
100
AcDbEntity
  8
0
100
AcDbBlockBegin
  2
*Model_Space
 70
     0
 10
0.0
 20
0.0
 30
0.0
  3
*Model_Space
  1

  0
ENDBLK
  5
39
330
37
100
AcDbEntity
  8
0
100
AcDbBlockEnd
  0
BLOCK
  5
34
330
33
100
AcDbEntity
 67
     1
  8
0
100
AcDbBlockBegin
  2
*Paper_Space
 70
     0
 10
0.0
 20
0.0
 30
0.0
  3
*Paper_Space
  1

  0
ENDBLK
  5
35
330
33
100
AcDbEntity
 67
     1
  8
0
100
AcDbBlockEnd
  0
BLOCK
  5
3C
330
3B
100
AcDbEntity
 67
     1
  8
0
100
AcDbBlockBegin
  2
*Paper_Space0
 70
     0
 10
0.0
 20
0.0
 30
0.0
  3
*Paper_Space0
  1

  0
ENDBLK
  5
3D
330
3B
100
AcDbEntity
 67
     1
  8
0
100
AcDbBlockEnd
  0
BLOCK
  5
E1
330
DC
100
AcDbEntity
  8
0
100
AcDbBlockBegin
  2
_Closed
 70
     0
 10
0.0
 20
0.0
 30
0.0
  3
_Closed
  1

  0
LINE
  5
DD
330
DC
100
AcDbEntity
  8
0
  6
ByBlock
 62
     0
370
    -2
100
AcDbLine
 10
-1.0
 20
0.1666666666666666
 30
0.0
 11
0.0
 21
0.0
 31
0.0
  0
LINE
  5
DE
330
DC
100
AcDbEntity
  8
0
  6
ByBlock
 62
     0
370
    -2
100
AcDbLine
 10
0.0
 20
0.0
 30
0.0
 11
-1.0
 21
-0.1666666666666666
 31
0.0
  0
LINE
  5
DF
330
DC
100
AcDbEntity
  8
0
  6
ByBlock
 62
     0
370
    -2
100
AcDbLine
 10
-1.0
 20
0.1666666666666666
 30
0.0
 11
-1.0
 21
-0.1666666666666666
 31
0.0
  0
LINE
  5
E0
330
DC
100
AcDbEntity
  8
0
  6
ByBlock
 62
     0
370
    -2
100
AcDbLine
 10
0.0
 20
0.0
 30
0.0
 11
-1.0
 21
0.0
 31
0.0
  0
ENDBLK
  5
E2
330
DC
100
AcDbEntity
  8
0
100
AcDbBlockEnd
  0
BLOCK
  5
E5
330
E4
100
AcDbEntity
  8
0
100
AcDbBlockBegin
  2
DatumFilled45
 70
     0
 10
0.0
 20
0.0
 30
0.0
  3
DatumFilled45
  1

  0
POLYLINE
  5
E7
330
E4
100
AcDbEntity
  8
0
 62
     0
100
AcDb2dPolyline
 66
     1
 10
0.0
 20
0.0
 30
0.0
 70
   128
  0
VERTEX
  5
E8
330
E7
100
AcDbEntity
  8
0
 62
     0
100
AcDbVertex
100
AcDb2dVertex
 10
0.0
 20
1.0
 30
0.0
  0
VERTEX
  5
E9
330
E7
100
AcDbEntity
  8
0
 62
     0
100
AcDbVertex
100
AcDb2dVertex
 10
0.0
 20
-1.0
 30
0.0
  0
VERTEX
  5
EB
330
E7
100
AcDbEntity
  8
0
 62
     0
100
AcDbVertex
100
AcDb2dVertex
 10
-1.0
 20
0.0
 30
0.0
  0
VERTEX
  5
EC
330
E7
100
AcDbEntity
  8
0
 62
     0
100
AcDbVertex
100
AcDb2dVertex
 10
0.0
 20
1.0
 30
0.0
  0
SEQEND
  5
EA
330
E7
100
AcDbEntity
  8
0
 62
     0
  0
SOLID
  5
ED
330
E4
100
AcDbEntity
  8
0
 62
     0
100
AcDbTrace
 10
0.0
 20
1.0
 30
0.0
 11
0.0
 21
-1.0
 31
0.0
 12
-1.0
 22
0.0
 32
0.0
 13
0.0
 23
1.0
 33
0.0
  0
ENDBLK
  5
E6
330
E4
100
AcDbEntity
  8
0
100
AcDbBlockEnd
  0
BLOCK
  5
F5
330
F4
100
AcDbEntity
  8
0
100
AcDbBlockBegin
  2
DIN 6930 (Toleranzklasse)
 70
     2
 10
0.0
 20
0.0
 30
0.0
  3
DIN 6930 (Toleranzklasse)
  1

  0
LINE
  5
F7
330
F4
100
AcDbEntity
  8
Skizziergeometrie(ISO)
100
AcDbLine
 10
-49.99999999999999
 20
24.99999999999996
 30
0.0
 11
0.0
 21
24.99999999999996
 31
0.0
  0
LINE
  5
F8
330
F4
100
AcDbEntity
  8
Skizziergeometrie(ISO)
100
AcDbLine
 10
0.0
 20
24.99999999999996
 30
0.0
 11
0.0
 21
0.0
 31
0.0
  0
LINE
  5
F9
330
F4
100
AcDbEntity
  8
Skizziergeometrie(ISO)
100
AcDbLine
 10
0.0
 20
0.0
 30
0.0
 11
-49.99999999999999
 21
0.0
 31
0.0
  0
LINE
  5
FA
330
F4
100
AcDbEntity
  8
Skizziergeometrie(ISO)
100
AcDbLine
 10
-49.99999999999999
 20
0.0
 30
0.0
 11
-49.99999999999999
 21
24.99999999999996
 31
0.0
  0
MTEXT
  5
FC
102
{ACAD_XDICTIONARY
360
B60
102
}
330
F4
100
AcDbEntity
  8
Symbole(ISO)
 62
     7
100
AcDbMText
 10
-25.01617139266887
 20
22.49496284479633
 30
0.0
 40
2.5
 41
49.93534911063455
 71
     5
 72
     1
  1
F\U+00FCr spanlose Bearbeitung
  7
TC 2_5 mm-ISOCPEUR
 73
     1
 44
1.0
1001
ACAD
1000
MTEXTBEGIN
1070
    73
1070
     1
1070
    44
1040
1.0
1070
    74
1070
     0
1000
MTEXTEND
  0
MTEXT
  5
FE
330
F4
100
AcDbEntity
  8
Symbole(ISO)
 62
     7
100
AcDbMText
 10
-24.96550299476308
 20
17.97814514565743
 30
0.0
 40
2.5
 41
49.94698265738096
 71
     5
 72
     1
  1
Allgemeintoleranz
  7
TC 2_5 mm-ISOCPEUR
 73
     1
 44
1.0
1001
ACAD
1000
MTEXTBEGIN
1070
    73
1070
     1
1070
    44
1040
1.0
1070
    74
1070
     0
1000
MTEXTEND
  0
MTEXT
  5
100
330
F4
100
AcDbEntity
  8
Symbole(ISO)
 62
     7
100
AcDbMText
 10
-22.00032990803074
 20
12.97814514565747
 30
0.0
 40
3.499999940395355
 41
28.04641142085023
 71
     6
 72
     1
  1
DIN 6930-
  7
TC 3_5 mm-ISOCPEUR
 73
     1
 44
1.0
1001
ACAD
1000
MTEXTBEGIN
1070
    73
1070
     1
1070
    44
1040
1.0
1070
    74
1070
     0
1000
MTEXTEND
  0
MTEXT
  5
101
330
F4
100
AcDbEntity
  8
Symbole(ISO)
 62
     7
100
AcDbMText
 10
-24.98510412015335
 20
5.018941170990345
 30
0.0
 40
2.5
 41
50.05946813167525
 71
     5
 72
     1
  1
(zul. Abweichung der\PWinkelstellung DIN 6935)
  7
TC 2_5 mm-ISOCPEUR
 73
     2
 44
1.068348169326782
1001
ACAD
1000
MTEXTBEGIN
1070
    73
1070
     2
1070
    44
1040
1.068348169326782
1070
    74
1070
     0
1000
MTEXTEND
  0
ATTDEF
  5
102
330
F4
100
AcDbEntity
  8
Symbole(ISO)
 62
     7
100
AcDbText
 10
-21.93383492465724
 20
11.2184168455105
 30
0.0
 40
3.499999940395355
  1
 
 41
0.899999976158142
  7
TC 3_5 mm-ISOCPEUR
 11
-21.93383492465724
 21
12.96841681570818
 31
0.0
100
AcDbAttributeDefinition
  3
Toleranzklasse
  2
Toleranzklasse
 70
     0
 74
     2
  0
ENDBLK
  5
F6
330
F4
100
AcDbEntity
  8
0
100
AcDbBlockEnd
  0
BLOCK
  5
106
330
105
100
AcDbEntity
  8
0
100
AcDbBlockBegin
  2
nicht bemaßte Radien
 70
     2
 10
0.0
 20
0.0
 30
0.0
  3
nicht bemaßte Radien
  1

  0
LINE
  5
108
330
105
100
AcDbEntity
  8
Skizziergeometrie(ISO)
100
AcDbLine
 10
0.0
 20
0.0
 30
0.0
 11
-50.0
 21
0.0
 31
0.0
  0
LINE
  5
109
330
105
100
AcDbEntity
  8
Skizziergeometrie(ISO)
100
AcDbLine
 10
-50.0
 20
0.0
 30
0.0
 11
-50.0
 21
5.0
 31
0.0
  0
LINE
  5
10A
330
105
100
AcDbEntity
  8
Skizziergeometrie(ISO)
100
AcDbLine
 10
-50.0
 20
5.0
 30
0.0
 11
0.0
 21
5.0
 31
0.0
  0
LINE
  5
10B
330
105
100
AcDbEntity
  8
Skizziergeometrie(ISO)
100
AcDbLine
 10
0.0
 20
5.0
 30
0.0
 11
0.0
 21
0.0
 31
0.0
  0
MTEXT
  5
10C
102
{ACAD_XDICTIONARY
360
B62
102
}
330
105
100
AcDbEntity
  8
Symbole(ISO)
 62
     7
100
AcDbMText
 10
-28.98102517277721
 20
2.530616500783118
 30
0.0
 40
2.5
 41
41.95492584233122
 71
     5
 72
     1
  1
Alle nicht bema\U+00DFten Radien R
  7
TC 2_5 mm-ISOCPEUR
 73
     1
 44
1.0
1001
ACAD
1000
MTEXTBEGIN
1070
    73
1070
     1
1070
    44
1040
1.0
1070
    74
1070
     0
1000
MTEXTEND
  0
ATTDEF
  5
10D
330
105
100
AcDbEntity
  8
Symbole(ISO)
 62
     7
100
AcDbText
 10
-4.624331584212832
 20
1.293984431277515
 30
0.0
 40
2.5
  1
 
 41
0.899999976158142
  7
TC 2_5 mm-ISOCPEUR
 72
     1
 11
-3.949331602094225
 21
2.543984431277515
 31
0.0
100
AcDbAttributeDefinition
  3
Radius
  2
Radius
 70
     0
 74
     2
  0
ENDBLK
  5
107
330
105
100
AcDbEntity
  8
0
100
AcDbBlockEnd
  0
BLOCK
  5
10F
330
10E
100
AcDbEntity
  8
0
100
AcDbBlockBegin
  2
DIN ISO 13715 (Werkstückkanten)
 70
     2
 10
0.0
 20
0.0
 30
0.0
  3
DIN ISO 13715 (Werkstückkanten)
  1

  0
LINE
  5
111
102
{ACAD_REACTORS
330
114
102
}
330
10E
100
AcDbEntity
  8
0
100
AcDbLine
 10
-35.0
 20
20.0
 30
0.0
 11
-32.75944236602587
 21
21.71924034067061
 31
0.0
  0
LINE
  5
112
102
{ACAD_REACTORS
330
114
102
}
330
10E
100
AcDbEntity
  8
0
100
AcDbLine
 10
-33.28075965932943
 20
22.24055763397416
 30
0.0
 11
-35.0
 21
20.0
 31
0.0
  0
LINE
  5
113
102
{ACAD_REACTORS
330
114
102
}
330
10E
100
AcDbEntity
  8
0
100
AcDbLine
 10
-32.75944236602587
 20
21.71924034067061
 30
0.0
 11
-33.28075965932943
 21
22.24055763397416
 31
0.0
  0
HATCH
  5
114
330
10E
100
AcDbEntity
  8
Schraffur
 62
     7
100
AcDbHatch
 10
0.0
 20
0.0
 30
0.0
210
0.0
220
0.0
230
1.0
  2
SOLID
 70
     1
 71
     1
 91
        1
 92
        1
 93
        3
 72
     1
 10
-35.0
 20
20.0
 11
-32.75944236602587
 21
21.71924034067061
 72
     1
 10
-32.75944236602587
 20
21.71924034067061
 11
-33.28075965932943
 21
22.24055763397416
 72
     1
 10
-33.28075965932943
 20
22.24055763397416
 11
-35.0
 21
20.0
 97
        3
330
111
330
113
330
112
 75
     0
 76
     1
 98
        1
 10
0.0
 20
0.0
  0
LINE
  5
115
102
{ACAD_REACTORS
330
118
102
}
330
10E
100
AcDbEntity
  8
0
100
AcDbLine
 10
-20.00000000000003
 20
20.00000000000003
 30
0.0
 11
-17.7594423660259
 21
21.71924034067057
 31
0.0
  0
LINE
  5
116
102
{ACAD_REACTORS
330
118
102
}
330
10E
100
AcDbEntity
  8
0
100
AcDbLine
 10
-18.28075965932939
 20
22.24055763397406
 30
0.0
 11
-20.00000000000003
 21
20.00000000000003
 31
0.0
  0
LINE
  5
117
102
{ACAD_REACTORS
330
118
102
}
330
10E
100
AcDbEntity
  8
0
100
AcDbLine
 10
-17.7594423660259
 20
21.71924034067057
 30
0.0
 11
-18.28075965932939
 21
22.24055763397406
 31
0.0
  0
HATCH
  5
118
330
10E
100
AcDbEntity
  8
Schraffur
 62
     7
100
AcDbHatch
 10
0.0
 20
0.0
 30
0.0
210
0.0
220
0.0
230
1.0
  2
SOLID
 70
     1
 71
     1
 91
        1
 92
        1
 93
        3
 72
     1
 10
-20.00000000000003
 20
20.00000000000003
 11
-17.7594423660259
 21
21.71924034067057
 72
     1
 10
-17.7594423660259
 20
21.71924034067057
 11
-18.28075965932939
 21
22.24055763397406
 72
     1
 10
-18.28075965932939
 20
22.24055763397406
 11
-20.00000000000003
 21
20.00000000000003
 97
        3
330
115
330
117
330
116
 75
     0
 76
     1
 98
        1
 10
0.0
 20
0.0
  0
LINE
  5
119
330
10E
100
AcDbEntity
  8
Skizziergeometrie(ISO)
100
AcDbLine
 10
-39.89999999999998
 20
20.0
 30
0.0
 11
-35.0
 21
20.0
 31
0.0
  0
LINE
  5
11A
330
10E
100
AcDbEntity
  8
Skizziergeometrie(ISO)
100
AcDbLine
 10
-35.0
 20
20.0
 30
0.0
 11
-34.99999999999996
 21
15.09999999999998
 31
0.0
  0
LINE
  5
11B
330
10E
100
AcDbEntity
  8
Skizziergeometrie(ISO)
100
AcDbLine
 10
-20.00000000000003
 20
20.00000000000003
 30
0.0
 11
-15.10000000000005
 21
20.00000000000003
 31
0.0
  0
LINE
  5
11C
330
10E
100
AcDbEntity
  8
Skizziergeometrie(ISO)
100
AcDbLine
 10
-20.00000000000003
 20
20.00000000000003
 30
0.0
 11
-20.00000000000003
 21
24.90000000000002
 31
0.0
  0
LINE
  5
11D
330
10E
100
AcDbEntity
  8
Skizziergeometrie(ISO)
100
AcDbLine
 10
-35.0
 20
20.0
 30
0.0
 11
-31.28768939877062
 21
23.71231060122938
 31
0.0
  0
LINE
  5
11E
330
10E
100
AcDbEntity
  8
Skizziergeometrie(ISO)
100
AcDbLine
 10
-31.28768939877062
 20
23.71231060122938
 30
0.0
 11
-26.3876893987706
 21
23.71231060122938
 31
0.0
  0
LINE
  5
11F
330
10E
100
AcDbEntity
  8
Skizziergeometrie(ISO)
100
AcDbLine
 10
-35.0
 20
20.0
 30
0.0
 11
-33.28075965932943
 21
22.24055763397416
 31
0.0
  0
LINE
  5
120
330
10E
100
AcDbEntity
  8
Skizziergeometrie(ISO)
100
AcDbLine
 10
-33.28075965932943
 20
22.24055763397416
 30
0.0
 11
-32.75944236602587
 21
21.71924034067061
 31
0.0
  0
LINE
  5
121
330
10E
100
AcDbEntity
  8
Skizziergeometrie(ISO)
100
AcDbLine
 10
-32.75944236602587
 20
21.71924034067061
 30
0.0
 11
-35.0
 21
20.0
 31
0.0
  0
LINE
  5
122
330
10E
100
AcDbEntity
  8
Skizziergeometrie(ISO)
100
AcDbLine
 10
-31.28768939877062
 20
23.71231060122938
 30
0.0
 11
-31.28768939877062
 21
28.61231060122936
 31
0.0
  0
LINE
  5
123
330
10E
100
AcDbEntity
  8
Skizziergeometrie(ISO)
100
AcDbLine
 10
-18.02010101267761
 20
21.97989898732235
 30
0.0
 11
-16.28768939877059
 21
23.71231060122938
 31
0.0
  0
LINE
  5
124
330
10E
100
AcDbEntity
  8
Skizziergeometrie(ISO)
100
AcDbLine
 10
-16.28768939877059
 20
23.71231060122938
 30
0.0
 11
-11.3876893987706
 21
23.71231060122938
 31
0.0
  0
LINE
  5
125
330
10E
100
AcDbEntity
  8
Skizziergeometrie(ISO)
100
AcDbLine
 10
-20.00000000000003
 20
20.00000000000003
 30
0.0
 11
-18.28075965932939
 21
22.24055763397406
 31
0.0
  0
LINE
  5
126
330
10E
100
AcDbEntity
  8
Skizziergeometrie(ISO)
100
AcDbLine
 10
-18.28075965932939
 20
22.24055763397406
 30
0.0
 11
-17.7594423660259
 21
21.71924034067057
 31
0.0
  0
LINE
  5
127
330
10E
100
AcDbEntity
  8
Skizziergeometrie(ISO)
100
AcDbLine
 10
-17.7594423660259
 20
21.71924034067057
 30
0.0
 11
-20.00000000000003
 21
20.00000000000003
 31
0.0
  0
LINE
  5
128
330
10E
100
AcDbEntity
  8
Skizziergeometrie(ISO)
100
AcDbLine
 10
-16.28768939877059
 20
23.71231060122938
 30
0.0
 11
-16.28768939877059
 21
28.61231060122936
 31
0.0
  0
LINE
  5
129
330
10E
100
AcDbEntity
  8
Skizziergeometrie(ISO)
100
AcDbLine
 10
-49.99999999999999
 20
35.0
 30
0.0
 11
0.0
 21
35.0
 31
0.0
  0
LINE
  5
12A
330
10E
100
AcDbEntity
  8
Skizziergeometrie(ISO)
100
AcDbLine
 10
0.0
 20
35.0
 30
0.0
 11
0.0
 21
0.0
 31
0.0
  0
LINE
  5
12B
330
10E
100
AcDbEntity
  8
Skizziergeometrie(ISO)
100
AcDbLine
 10
0.0
 20
0.0
 30
0.0
 11
-49.99999999999999
 21
0.0
 31
0.0
  0
LINE
  5
12C
330
10E
100
AcDbEntity
  8
Skizziergeometrie(ISO)
100
AcDbLine
 10
-49.99999999999999
 20
0.0
 30
0.0
 11
-49.99999999999999
 21
35.0
 31
0.0
  0
MTEXT
  5
12D
102
{ACAD_XDICTIONARY
360
B64
102
}
330
10E
100
AcDbEntity
  8
Symbole(ISO)
 62
     7
100
AcDbMText
 10
-24.97893135154584
 20
10.23779293592927
 30
0.0
 40
3.499999940395355
 41
49.9873458157533
 71
     5
 72
     1
  1
Werkst\U+00FCckkanten\Pnach ISO 13715
  7
TC 3_5 mm-ISOCPEUR
 73
     2
 44
1.068348169326782
1001
ACAD
1000
MTEXTBEGIN
1070
    73
1070
     2
1070
    44
1040
1.068348169326782
1070
    74
1070
     0
1000
MTEXTEND
  0
ATTDEF
  5
12E
330
10E
100
AcDbEntity
  8
Symbole(ISO)
 62
     7
100
AcDbText
 10
-30.16177492853139
 20
24.5808246293851
 30
0.0
 40
2.5
  1
 
 41
0.899999976158142
  7
TC 2_5 mm-ISOCPEUR
 11
-30.16177492853139
 21
25.8308246293851
 31
0.0
100
AcDbAttributeDefinition
  3
AK unten
  2
AK_unten
 70
     0
 74
     2
  0
ATTDEF
  5
12F
330
10E
100
AcDbEntity
  8
Symbole(ISO)
 62
     7
100
AcDbText
 10
-30.17792390794348
 20
27.58528770975683
 30
0.0
 40
2.5
  1
 
 41
0.899999976158142
  7
TC 2_5 mm-ISOCPEUR
 11
-30.17792390794348
 21
28.83528770975683
 31
0.0
100
AcDbAttributeDefinition
  3
AK oben
  2
AK_oben
 70
     0
 74
     2
  0
ATTDEF
  5
130
330
10E
100
AcDbEntity
  8
Symbole(ISO)
 62
     7
100
AcDbText
 10
-15.11922386270676
 20
24.61259748150297
 30
0.0
 40
2.5
  1
 
 41
0.899999976158142
  7
TC 2_5 mm-ISOCPEUR
 11
-15.11922386270676
 21
25.86259748150297
 31
0.0
100
AcDbAttributeDefinition
  3
IK unten
  2
IK_unten
 70
     0
 74
     2
  0
ATTDEF
  5
131
330
10E
100
AcDbEntity
  8
Symbole(ISO)
 62
     7
100
AcDbText
 10
-15.14487582203273
 20
27.61806754523864
 30
0.0
 40
2.5
  1
 
 41
0.899999976158142
  7
TC 2_5 mm-ISOCPEUR
 11
-15.14487582203273
 21
28.86806754523864
 31
0.0
100
AcDbAttributeDefinition
  3
IK oben
  2
IK_oben
 70
     0
 74
     2
  0
ENDBLK
  5
110
330
10E
100
AcDbEntity
  8
0
100
AcDbBlockEnd
  0
BLOCK
  5
133
330
132
100
AcDbEntity
  8
0
100
AcDbBlockBegin
  2
EN 12329 (Chromatierung)
 70
     0
 10
0.0
 20
0.0
 30
0.0
  3
EN 12329 (Chromatierung)
  1

  0
LINE
  5
135
330
132
100
AcDbEntity
  8
Skizziergeometrie(ISO)
100
AcDbLine
 10
0.0
 20
0.0
 30
0.0
 11
-50.0
 21
0.0
 31
0.0
  0
LINE
  5
136
330
132
100
AcDbEntity
  8
Skizziergeometrie(ISO)
100
AcDbLine
 10
-50.0
 20
0.0
 30
0.0
 11
-50.0
 21
15.0
 31
0.0
  0
LINE
  5
137
330
132
100
AcDbEntity
  8
Skizziergeometrie(ISO)
100
AcDbLine
 10
-50.0
 20
15.0
 30
0.0
 11
0.0
 21
15.00000000000003
 31
0.0
  0
LINE
  5
138
330
132
100
AcDbEntity
  8
Skizziergeometrie(ISO)
100
AcDbLine
 10
0.0
 20
15.00000000000003
 30
0.0
 11
0.0
 21
0.0
 31
0.0
  0
MTEXT
  5
139
330
132
100
AcDbEntity
  8
Symbole(ISO)
 62
     7
100
AcDbMText
 10
-24.98833105758937
 20
7.490142772208123
 30
0.0
 40
2.5
 41
49.83545872181219
 71
     5
 72
     1
  1
Verzinkt FE / ZN / C\PEN 12329\P(gelb chromatiert)
  7
TC 2_5 mm-ISOCPEUR
 73
     2
 44
1.068348169326782
1001
ACAD
1000
MTEXTBEGIN
1070
    73
1070
     2
1070
    44
1040
1.068348169326782
1070
    74
1070
     0
1000
MTEXTEND
  0
ENDBLK
  5
134
330
132
100
AcDbEntity
  8
0
100
AcDbBlockEnd
  0
BLOCK
  5
13B
330
13A
100
AcDbEntity
  8
0
100
AcDbBlockBegin
  2
ISO 2768 (zul. Abweichung)
 70
     2
 10
0.0
 20
0.0
 30
0.0
  3
ISO 2768 (zul. Abweichung)
  1

  0
LINE
  5
13D
330
13A
100
AcDbEntity
  8
Skizziergeometrie(ISO)
100
AcDbLine
 10
-26.0
 20
0.0
 30
0.0
 11
0.0
 21
0.0
 31
0.0
  0
LINE
  5
13E
330
13A
100
AcDbEntity
  8
Skizziergeometrie(ISO)
100
AcDbLine
 10
0.0
 20
0.0
 30
0.0
 11
0.0
 21
17.0
 31
0.0
  0
LINE
  5
13F
330
13A
100
AcDbEntity
  8
Skizziergeometrie(ISO)
100
AcDbLine
 10
0.0
 20
17.0
 30
0.0
 11
-26.0
 21
17.0
 31
0.0
  0
LINE
  5
140
330
13A
100
AcDbEntity
  8
Skizziergeometrie(ISO)
100
AcDbLine
 10
-26.0
 20
17.0
 30
0.0
 11
-26.0
 21
0.0
 31
0.0
  0
MTEXT
  5
141
330
13A
100
AcDbEntity
  8
Symbole(ISO)
 62
     7
100
AcDbMText
 10
-7.994454197588593
 20
5.526470854171373
 30
0.0
 40
2.5
 41
17.99309312940538
 71
     6
 72
     1
  1
ISO 2768-
  7
TC 2_5 mm-ISOCPEUR
 73
     1
 44
1.0
1001
ACAD
1000
MTEXTBEGIN
1070
    73
1070
     1
1070
    44
1040
1.0
1070
    74
1070
     0
1000
MTEXTEND
  0
ATTDEF
  5
142
330
13A
100
AcDbEntity
  8
Symbole(ISO)
 62
     7
100
AcDbText
 10
-7.924832568762529
 20
4.240604076340716
 30
0.0
 40
2.5
  1
 
 41
0.899999976158142
  7
TC 2_5 mm-ISOCPEUR
 11
-7.924832568762529
 21
5.490604076340716
 31
0.0
100
AcDbAttributeDefinition
  3
Grad
  2
Grad
 70
     0
 74
     2
  0
ENDBLK
  5
13C
330
13A
100
AcDbEntity
  8
0
100
AcDbBlockEnd
  0
BLOCK
  5
144
330
143
100
AcDbEntity
  8
0
100
AcDbBlockBegin
  2
DIN ISO 1302 (Oberflächen)
 70
     0
 10
0.0
 20
0.0
 30
0.0
  3
DIN ISO 1302 (Oberflächen)
  1

  0
LINE
  5
146
330
143
100
AcDbEntity
  8
Skizziergeometrie(ISO)
100
AcDbLine
 10
-18.19999999999999
 20
0.0
 30
0.0
 11
0.0
 21
0.0
 31
0.0
  0
LINE
  5
147
330
143
100
AcDbEntity
  8
Skizziergeometrie(ISO)
100
AcDbLine
 10
0.0
 20
0.0
 30
0.0
 11
0.0
 21
17.0
 31
0.0
  0
LINE
  5
148
330
143
100
AcDbEntity
  8
Skizziergeometrie(ISO)
100
AcDbLine
 10
0.0
 20
17.0
 30
0.0
 11
-18.2
 21
17.0
 31
0.0
  0
LINE
  5
149
330
143
100
AcDbEntity
  8
Skizziergeometrie(ISO)
100
AcDbLine
 10
-18.2
 20
17.0
 30
0.0
 11
-18.19999999999999
 21
0.0
 31
0.0
  0
MTEXT
  5
14A
330
143
100
AcDbEntity
  8
Symbole(ISO)
 62
     7
100
AcDbMText
 10
-9.137586403397849
 20
5.561325836084813
 30
0.0
 40
2.5
 41
18.21623868792871
 71
     5
 72
     1
  1
DIN ISO 1302
  7
TC 2_5 mm-ISOCPEUR
 73
     1
 44
1.0
1001
ACAD
1000
MTEXTBEGIN
1070
    73
1070
     1
1070
    44
1040
1.0
1070
    74
1070
     0
1000
MTEXTEND
  0
ENDBLK
  5
145
330
143
100
AcDbEntity
  8
0
100
AcDbBlockEnd
  0
BLOCK
  5
14C
330
14B
100
AcDbEntity
  8
0
100
AcDbBlockBegin
  2
Ränder Ilme Rahmen A4 quer
 70
     0
 10
0.0
 20
0.0
 30
0.0
  3
Ränder Ilme Rahmen A4 quer
  1

  0
LINE
  5
14E
330
14B
100
AcDbEntity
  8
Skizziergeometrie(ISO)
100
AcDbLine
 10
9.999999999999982
 20
9.999999999999952
 30
0.0
 11
10.00000000000001
 21
190.0
 31
0.0
  0
LINE
  5
14F
330
14B
100
AcDbEntity
  8
Skizziergeometrie(ISO)
100
AcDbLine
 10
10.00000000000001
 20
190.0
 30
0.0
 11
287.0
 21
190.0
 31
0.0
  0
LINE
  5
150
330
14B
100
AcDbEntity
  8
Skizziergeometrie(ISO)
100
AcDbLine
 10
9.999999999999982
 20
9.999999999999952
 30
0.0
 11
287.0
 21
10.00000000000003
 31
0.0
  0
LINE
  5
151
330
14B
100
AcDbEntity
  8
Skizziergeometrie(ISO)
100
AcDbLine
 10
148.5
 20
210.0
 30
0.0
 11
148.5
 21
196.0
 31
0.0
  0
LINE
  5
152
330
14B
100
AcDbEntity
  8
Skizziergeometrie(ISO)
100
AcDbLine
 10
287.0
 20
190.0
 30
0.0
 11
287.0
 21
10.00000000000003
 31
0.0
  0
MTEXT
  5
153
330
14B
100
AcDbEntity
  8
Symbole(ISO)
 62
     7
100
AcDbMText
 10
148.5
 20
196.0
 30
0.0
 40
3.499999940395355
 41
0.0
 71
     2
 72
     1
  1
\fISOCPEUR|b0|i0;\H3.5000;    Diritti riservati     All rights reseved
  7
TC 2_5 mm
 73
     1
 44
1.0
1001
ACAD
1000
MTEXTBEGIN
1070
    73
1070
     1
1070
    44
1040
1.0
1070
    74
1070
     0
1000
MTEXTEND
  0
ENDBLK
  5
14D
330
14B
100
AcDbEntity
  8
0
100
AcDbBlockEnd
  0
BLOCK
  5
157
330
156
100
AcDbEntity
  8
0
100
AcDbBlockBegin
  2
Schriftfelder Ilme
 70
     2
 10
0.0
 20
0.0
 30
0.0
  3
Schriftfelder Ilme
  1

  0
ARC
  5
159
102
{ACAD_REACTORS
330
15D
102
}
330
156
100
AcDbEntity
  8
0
100
AcDbCircle
 10
184.655189950303
 20
19.15390948356282
 30
10.0
 40
0.3333333333333996
100
AcDbArc
 50
0.0
 51
180.0
  0
LINE
  5
15A
102
{ACAD_REACTORS
330
15D
102
}
330
156
100
AcDbEntity
  8
0
100
AcDbLine
 10
184.3218566169696
 20
15.84737070168959
 30
10.0
 11
184.3218566169696
 21
19.15390948356282
 31
10.0
  0
ARC
  5
15B
102
{ACAD_REACTORS
330
15D
102
}
330
156
100
AcDbEntity
  8
0
100
AcDbCircle
 10
184.655189950303
 20
15.84737070168959
 30
10.0
 40
0.3333333333333997
100
AcDbArc
 50
180.0
 51
0.0
  0
LINE
  5
15C
102
{ACAD_REACTORS
330
15D
102
}
330
156
100
AcDbEntity
  8
0
100
AcDbLine
 10
184.9885232836365
 20
19.15390948356282
 30
10.0
 11
184.9885232836365
 21
15.84737070168959
 31
10.0
  0
HATCH
  5
15D
330
156
100
AcDbEntity
  8
Schraffur
 62
     7
100
AcDbHatch
 10
0.0
 20
0.0
 30
0.0
210
0.0
220
0.0
230
1.0
  2
SOLID
 70
     1
 71
     1
 91
        1
 92
        1
 93
        4
 72
     2
 10
184.655189950303
 20
19.15390948356282
 40
0.3333333333333996
 50
0.0
 51
180.0
 73
     1
 72
     1
 10
184.3218566169696
 20
19.15390948356282
 11
184.3218566169696
 21
15.84737070168959
 72
     2
 10
184.655189950303
 20
15.84737070168959
 40
0.3333333333333997
 50
180.0
 51
360.0
 73
     1
 72
     1
 10
184.9885232836365
 20
15.84737070168959
 11
184.9885232836365
 21
19.15390948356282
 97
        4
330
159
330
15A
330
15B
330
15C
 75
     0
 76
     1
 98
        1
 10
0.0
 20
0.0
  0
LINE
  5
15E
102
{ACAD_REACTORS
330
165
102
}
330
156
100
AcDbEntity
  8
0
100
AcDbLine
 10
188.4894939320861
 20
14.02010125116808
 30
0.0
 11
186.3218576257727
 21
15.27066065865696
 31
0.0
  0
ARC
  5
15F
102
{ACAD_REACTORS
330
165
102
}
330
156
100
AcDbEntity
  8
0
100
AcDbCircle
 10
188.3229197809228
 20
13.73137272248517
 30
0.0
 40
0.333333333333396
100
AcDbArc
 50
240.0183606311473
 51
60.01836063114733
  0
LINE
  5
160
102
{ACAD_REACTORS
330
165
102
}
330
156
100
AcDbEntity
  8
0
100
AcDbLine
 10
185.9887104250881
 20
14.69320296572853
 30
0.0
 11
188.1563456297596
 21
13.44264419380229
 31
0.0
  0
ARC
  5
161
102
{ACAD_REACTORS
330
165
102
}
330
156
100
AcDbEntity
  8
0
100
AcDbCircle
 10
186.3218598278342
 20
15.27066193048824
 30
0.0
 40
0.6666688687282916
100
AcDbArc
 50
180.0
 51
240.0183606311454
  0
LINE
  5
162
102
{ACAD_REACTORS
330
165
102
}
330
156
100
AcDbEntity
  8
0
100
AcDbLine
 10
185.6551909591059
 20
19.94397836659928
 30
0.0
 11
185.6551909591059
 21
15.27066193048824
 31
0.0
  0
ARC
  5
163
102
{ACAD_REACTORS
330
165
102
}
330
156
100
AcDbEntity
  8
0
100
AcDbCircle
 10
185.9885242924393
 20
19.94397836659928
 30
0.0
 40
0.333333333333396
100
AcDbArc
 50
0.0
 51
180.0
  0
LINE
  5
164
102
{ACAD_REACTORS
330
165
102
}
330
156
100
AcDbEntity
  8
0
100
AcDbLine
 10
186.3218576257727
 20
15.27066065865696
 30
0.0
 11
186.3218576257727
 21
19.94397836659928
 31
0.0
  0
HATCH
  5
165
330
156
100
AcDbEntity
  8
Schraffur
 62
     7
100
AcDbHatch
 10
0.0
 20
0.0
 30
0.0
210
0.0
220
0.0
230
1.0
  2
SOLID
 70
     1
 71
     1
 91
        1
 92
        1
 93
        7
 72
     1
 10
188.4894939320861
 20
14.02010125116808
 11
186.3218576257727
 21
15.27066065865696
 72
     1
 10
186.3218576257727
 20
15.27066065865696
 11
186.3218576257727
 21
19.94397836659928
 72
     2
 10
185.9885242924393
 20
19.94397836659928
 40
0.333333333333396
 50
0.0
 51
180.0
 73
     1
 72
     1
 10
185.6551909591059
 20
19.94397836659928
 11
185.6551909591059
 21
15.27066193048824
 72
     2
 10
186.3218598278342
 20
15.27066193048824
 40
0.6666688687282916
 50
180.0
 51
240.0183606311454
 73
     1
 72
     1
 10
185.9887104250881
 20
14.69320296572853
 11
188.1563456297596
 21
13.44264419380229
 72
     2
 10
188.3229197809228
 20
13.73137272248517
 40
0.333333333333396
 50
240.0183606311473
 51
420.0183606311473
 73
     1
 97
        7
330
15E
330
164
330
163
330
162
330
161
330
160
330
15F
 75
     0
 76
     1
 98
        1
 10
0.0
 20
0.0
  0
LINE
  5
166
102
{ACAD_REACTORS
330
173
102
}
330
156
100
AcDbEntity
  8
0
100
AcDbLine
 10
188.655189950303
 20
18.85482345606895
 30
0.0
 11
187.4829623801859
 21
20.88518116554469
 31
0.0
  0
LINE
  5
167
102
{ACAD_REACTORS
330
173
102
}
330
156
100
AcDbEntity
  8
0
100
AcDbLine
 10
189.82741752042
 20
20.88518116554469
 30
0.0
 11
188.655189950303
 21
18.85482345606895
 31
0.0
  0
ARC
  5
168
102
{ACAD_REACTORS
330
173
102
}
330
156
100
AcDbEntity
  8
0
100
AcDbCircle
 10
190.0568849915682
 20
20.75269805930704
 30
0.0
 40
0.2649662124752865
100
AcDbArc
 50
0.0
 51
149.9999999999939
  0
LINE
  5
169
102
{ACAD_REACTORS
330
173
102
}
330
156
100
AcDbEntity
  8
0
100
AcDbLine
 10
190.3218512040435
 20
14.28806850858179
 30
0.0
 11
190.3218512040435
 21
20.75269805930705
 31
0.0
  0
ARC
  5
16A
102
{ACAD_REACTORS
330
173
102
}
330
156
100
AcDbEntity
  8
0
100
AcDbCircle
 10
189.98851787071
 20
14.28806850858179
 30
0.0
 40
0.3333333333334023
100
AcDbArc
 50
180.0
 51
0.0
  0
LINE
  5
16B
102
{ACAD_REACTORS
330
173
102
}
330
156
100
AcDbEntity
  8
0
100
AcDbLine
 10
189.6551845373767
 20
19.25353601487275
 30
0.0
 11
189.6551845373766
 21
14.28806850858179
 31
0.0
  0
LINE
  5
16C
102
{ACAD_REACTORS
330
173
102
}
330
156
100
AcDbEntity
  8
0
100
AcDbLine
 10
188.7995275176003
 20
17.77149458276708
 30
0.0
 11
189.6551845373767
 21
19.25353601487275
 31
0.0
  0
ARC
  5
16D
102
{ACAD_REACTORS
330
173
102
}
330
156
100
AcDbEntity
  8
0
100
AcDbCircle
 10
188.655189950303
 20
17.85482791610036
 30
0.0
 40
0.1666666666665381
100
AcDbArc
 50
209.9999999999992
 51
330.0000000000008
  0
LINE
  5
16E
102
{ACAD_REACTORS
330
173
102
}
330
156
100
AcDbEntity
  8
0
100
AcDbLine
 10
187.6551953632293
 20
19.25353601487277
 30
0.0
 11
188.5108523830057
 21
17.77149458276708
 31
0.0
  0
LINE
  5
16F
102
{ACAD_REACTORS
330
173
102
}
330
156
100
AcDbEntity
  8
0
100
AcDbLine
 10
187.6551953632293
 20
15.84737070168959
 30
0.0
 11
187.6551953632293
 21
19.25353601487277
 31
0.0
  0
ARC
  5
170
102
{ACAD_REACTORS
330
173
102
}
330
156
100
AcDbEntity
  8
0
100
AcDbCircle
 10
187.3218620298959
 20
15.84737070168959
 30
0.0
 40
0.333333333333396
100
AcDbArc
 50
180.0
 51
0.0
  0
LINE
  5
171
102
{ACAD_REACTORS
330
173
102
}
330
156
100
AcDbEntity
  8
0
100
AcDbLine
 10
186.9885286965624
 20
20.75269805930705
 30
0.0
 11
186.9885286965624
 21
15.84737070168959
 31
0.0
  0
ARC
  5
172
102
{ACAD_REACTORS
330
173
102
}
330
156
100
AcDbEntity
  8
0
100
AcDbCircle
 10
187.2534949090378
 20
20.75269805930705
 30
0.0
 40
0.2649662124752854
100
AcDbArc
 50
29.9999999999981
 51
180.0
  0
HATCH
  5
173
330
156
100
AcDbEntity
  8
Schraffur
 62
     7
100
AcDbHatch
 10
0.0
 20
0.0
 30
0.0
210
0.0
220
0.0
230
1.0
  2
SOLID
 70
     1
 71
     1
 91
        1
 92
        1
 93
       13
 72
     1
 10
188.655189950303
 20
18.85482345606895
 11
187.4829623801859
 21
20.88518116554469
 72
     2
 10
187.2534949090378
 20
20.75269805930705
 40
0.2649662124752854
 50
29.9999999999981
 51
180.0
 73
     1
 72
     1
 10
186.9885286965624
 20
20.75269805930705
 11
186.9885286965624
 21
15.84737070168959
 72
     2
 10
187.3218620298959
 20
15.84737070168959
 40
0.333333333333396
 50
180.0
 51
360.0
 73
     1
 72
     1
 10
187.6551953632293
 20
15.84737070168959
 11
187.6551953632293
 21
19.25353601487277
 72
     1
 10
187.6551953632293
 20
19.25353601487277
 11
188.5108523830057
 21
17.77149458276708
 72
     2
 10
188.655189950303
 20
17.85482791610036
 40
0.1666666666665381
 50
209.9999999999992
 51
330.0000000000008
 73
     1
 72
     1
 10
188.7995275176003
 20
17.77149458276708
 11
189.6551845373767
 21
19.25353601487275
 72
     1
 10
189.6551845373767
 20
19.25353601487275
 11
189.6551845373766
 21
14.28806850858179
 72
     2
 10
189.98851787071
 20
14.28806850858179
 40
0.3333333333334023
 50
180.0
 51
360.0
 73
     1
 72
     1
 10
190.3218512040435
 20
14.28806850858179
 11
190.3218512040435
 21
20.75269805930705
 72
     2
 10
190.0568849915682
 20
20.75269805930704
 40
0.2649662124752865
 50
0.0
 51
149.9999999999939
 73
     1
 72
     1
 10
189.82741752042
 20
20.88518116554469
 11
188.655189950303
 21
18.85482345606894
 97
       13
330
166
330
172
330
171
330
170
330
16F
330
16E
330
16D
330
16C
330
16B
330
16A
330
169
330
168
330
167
 75
     0
 76
     1
 98
        1
 10
0.0
 20
0.0
  0
ARC
  5
174
102
{ACAD_REACTORS
330
182
102
}
330
156
100
AcDbEntity
  8
0
100
AcDbCircle
 10
192.6913083387628
 20
15.84737070168959
 30
10.0
 40
0.3333333333333919
100
AcDbArc
 50
299.9816393688529
 51
119.9816393688526
  0
LINE
  5
175
102
{ACAD_REACTORS
330
182
102
}
330
156
100
AcDbEntity
  8
0
100
AcDbLine
 10
191.6551889415001
 20
15.6344385114688
 30
10.0
 11
192.5247341875995
 21
16.13609923037247
 31
10.0
  0
LINE
  5
176
102
{ACAD_REACTORS
330
182
102
}
330
156
100
AcDbEntity
  8
0
100
AcDbLine
 10
191.6551889415001
 20
17.1673067592928
 30
10.0
 11
191.6551889415001
 21
15.6344385114688
 31
10.0
  0
LINE
  5
177
102
{ACAD_REACTORS
330
182
102
}
330
156
100
AcDbEntity
  8
0
100
AcDbLine
 10
192.6913083387628
 20
17.1673067592928
 30
10.0
 11
191.6551889415001
 21
17.1673067592928
 31
10.0
  0
ARC
  5
178
102
{ACAD_REACTORS
330
182
102
}
330
156
100
AcDbEntity
  8
0
100
AcDbCircle
 10
192.6913083387628
 20
17.5006400926262
 30
10.0
 40
0.333333333333396
100
AcDbArc
 50
270.0
 51
90.0
  0
LINE
  5
179
102
{ACAD_REACTORS
330
182
102
}
330
156
100
AcDbEntity
  8
0
100
AcDbLine
 10
191.6551889415001
 20
17.8339734259596
 30
10.0
 11
192.6913083387628
 21
17.8339734259596
 31
10.0
  0
LINE
  5
17A
102
{ACAD_REACTORS
330
182
102
}
330
156
100
AcDbEntity
  8
0
100
AcDbLine
 10
191.6551889415001
 20
19.36684167378358
 30
10.0
 11
191.6551889415001
 21
17.8339734259596
 31
10.0
  0
LINE
  5
17B
102
{ACAD_REACTORS
330
182
102
}
330
156
100
AcDbEntity
  8
0
100
AcDbLine
 10
192.5247341875995
 20
18.86518095487989
 30
10.0
 11
191.6551889415001
 21
19.36684167378358
 31
10.0
  0
ARC
  5
17C
102
{ACAD_REACTORS
330
182
102
}
330
156
100
AcDbEntity
  8
0
100
AcDbCircle
 10
192.6913083387628
 20
19.15390948356282
 30
10.0
 40
0.3333333333333963
100
AcDbArc
 50
240.0183606311407
 51
60.01835942372524
  0
LINE
  5
17D
102
{ACAD_REACTORS
330
182
102
}
330
156
100
AcDbEntity
  8
0
100
AcDbLine
 10
191.4884297593299
 20
20.23270689528218
 30
10.0
 11
192.857882489926
 21
19.44263801224573
 31
10.0
  0
ARC
  5
17E
102
{ACAD_REACTORS
330
182
102
}
330
156
100
AcDbEntity
  8
0
100
AcDbCircle
 10
191.3218556081666
 20
19.94397836659928
 30
10.0
 40
0.333333333333396
100
AcDbArc
 50
60.01836063114071
 51
180.0
  0
LINE
  5
17F
102
{ACAD_REACTORS
330
182
102
}
330
156
100
AcDbEntity
  8
0
100
AcDbLine
 10
190.9885222748332
 20
15.05730181865312
 30
10.0
 11
190.9885222748332
 21
19.94397836659928
 31
10.0
  0
ARC
  5
180
102
{ACAD_REACTORS
330
182
102
}
330
156
100
AcDbEntity
  8
0
100
AcDbCircle
 10
191.3218556081666
 20
15.05730181865312
 30
10.0
 40
0.333333333333396
100
AcDbArc
 50
180.0
 51
299.9816393688593
  0
LINE
  5
181
102
{ACAD_REACTORS
330
182
102
}
330
156
100
AcDbEntity
  8
0
100
AcDbLine
 10
192.857882489926
 20
15.55864217300668
 30
10.0
 11
191.4884297593299
 21
14.7685732899702
 31
10.0
  0
HATCH
  5
182
330
156
100
AcDbEntity
  8
Schraffur
 62
     7
100
AcDbHatch
 10
0.0
 20
0.0
 30
0.0
210
0.0
220
0.0
230
1.0
  2
SOLID
 70
     1
 71
     1
 91
        1
 92
        1
 93
       14
 72
     2
 10
192.6913083387628
 20
15.84737070168959
 40
0.3333333333333919
 50
299.9816393688529
 51
479.9816393688526
 73
     1
 72
     1
 10
192.5247341875995
 20
16.13609923037247
 11
191.6551889415001
 21
15.63443851146881
 72
     1
 10
191.6551889415001
 20
15.6344385114688
 11
191.6551889415001
 21
17.1673067592928
 72
     1
 10
191.6551889415001
 20
17.1673067592928
 11
192.6913083387628
 21
17.1673067592928
 72
     2
 10
192.6913083387628
 20
17.5006400926262
 40
0.333333333333396
 50
270.0
 51
450.0
 73
     1
 72
     1
 10
192.6913083387628
 20
17.8339734259596
 11
191.6551889415001
 21
17.8339734259596
 72
     1
 10
191.6551889415001
 20
17.8339734259596
 11
191.6551889415001
 21
19.36684167378358
 72
     1
 10
191.6551889415001
 20
19.36684167378358
 11
192.5247341875995
 21
18.86518095487989
 72
     2
 10
192.6913083387628
 20
19.15390948356282
 40
0.3333333333333963
 50
240.0183606311407
 51
420.0183594237252
 73
     1
 72
     1
 10
192.857882489926
 20
19.44263801224573
 11
191.4884297593299
 21
20.23270689528218
 72
     2
 10
191.3218556081666
 20
19.94397836659928
 40
0.333333333333396
 50
60.01836063114071
 51
180.0
 73
     1
 72
     1
 10
190.9885222748332
 20
19.94397836659928
 11
190.9885222748332
 21
15.05730181865312
 72
     2
 10
191.3218556081666
 20
15.05730181865312
 40
0.333333333333396
 50
180.0
 51
299.9816393688593
 73
     1
 72
     1
 10
191.4884297593299
 20
14.7685732899702
 11
192.857882489926
 21
15.55864217300668
 97
       14
330
174
330
175
330
176
330
177
330
178
330
179
330
17A
330
17B
330
17C
330
17D
330
17E
330
17F
330
180
330
181
 75
     0
 76
     1
 98
        1
 10
0.0
 20
0.0
  0
LINE
  5
183
330
156
100
AcDbEntity
  8
Skizziergeometrie(ISO)
100
AcDbLine
 10
19.98018995030303
 20
45.0006400926262
 30
0.0
 11
199.980189950303
 21
45.0006400926262
 31
0.0
  0
LINE
  5
184
330
156
100
AcDbEntity
  8
Skizziergeometrie(ISO)
100
AcDbLine
 10
19.98018995030303
 20
40.0006400926262
 30
0.0
 11
199.980189950303
 21
40.0006400926262
 31
0.0
  0
LINE
  5
185
330
156
100
AcDbEntity
  8
Skizziergeometrie(ISO)
100
AcDbLine
 10
19.98018995030303
 20
35.00064009262621
 30
0.0
 11
199.980189950303
 21
35.00064009262621
 31
0.0
  0
LINE
  5
186
330
156
100
AcDbEntity
  8
Skizziergeometrie(ISO)
100
AcDbLine
 10
19.98018995030303
 20
30.00064009262621
 30
0.0
 11
199.980189950303
 21
30.00064009262621
 31
0.0
  0
LINE
  5
187
330
156
100
AcDbEntity
  8
Skizziergeometrie(ISO)
100
AcDbLine
 10
19.98018995030303
 20
25.00064009262621
 30
0.0
 11
199.980189950303
 21
25.00064009262621
 31
0.0
  0
LINE
  5
188
330
156
100
AcDbEntity
  8
Skizziergeometrie(ISO)
100
AcDbLine
 10
19.98018995030303
 20
17.5006400926262
 30
0.0
 11
49.98018995030306
 21
17.5006400926262
 31
0.0
  0
LINE
  5
189
330
156
100
AcDbEntity
  8
Skizziergeometrie(ISO)
100
AcDbLine
 10
26.98018995030303
 20
45.0006400926262
 30
0.0
 11
26.98018995030303
 21
25.00064009262621
 31
0.0
  0
LINE
  5
18A
330
156
100
AcDbEntity
  8
Skizziergeometrie(ISO)
100
AcDbLine
 10
44.98018995030303
 20
45.0006400926262
 30
0.0
 11
44.98018995030303
 21
25.00064009262621
 31
0.0
  0
LINE
  5
18B
330
156
100
AcDbEntity
  8
Skizziergeometrie(ISO)
100
AcDbLine
 10
49.98018995030306
 20
10.0006400926262
 30
0.0
 11
49.98018995030306
 21
25.00064009262621
 31
0.0
  0
LINE
  5
18C
330
156
100
AcDbEntity
  8
Skizziergeometrie(ISO)
100
AcDbLine
 10
159.980189950303
 20
25.00064009262621
 30
0.0
 11
159.980189950303
 21
10.0006400926262
 31
0.0
  0
LINE
  5
18D
330
156
100
AcDbEntity
  8
Skizziergeometrie(ISO)
100
AcDbLine
 10
177.3301899503031
 20
25.0006400926262
 30
0.0
 11
177.3301899503031
 21
10.0006400926262
 31
0.0
  0
LINE
  5
18E
330
156
100
AcDbEntity
  8
Skizziergeometrie(ISO)
100
AcDbLine
 10
190.9885222748332
 20
15.05730181865312
 30
0.0
 11
190.9885222748332
 21
19.94397836659928
 31
0.0
  0
LINE
  5
18F
330
156
100
AcDbEntity
  8
Skizziergeometrie(ISO)
100
AcDbLine
 10
192.857882489926
 20
15.55864217300668
 30
0.0
 11
191.4884297593299
 21
14.7685732899702
 31
0.0
  0
LINE
  5
190
330
156
100
AcDbEntity
  8
Skizziergeometrie(ISO)
100
AcDbLine
 10
191.6551889415001
 20
15.6344385114688
 30
0.0
 11
192.5247341875995
 21
16.13609923037247
 31
0.0
  0
LINE
  5
191
330
156
100
AcDbEntity
  8
Skizziergeometrie(ISO)
100
AcDbLine
 10
191.6551889415001
 20
17.1673067592928
 30
0.0
 11
191.6551889415001
 21
15.6344385114688
 31
0.0
  0
LINE
  5
192
330
156
100
AcDbEntity
  8
Skizziergeometrie(ISO)
100
AcDbLine
 10
192.6913083387628
 20
17.1673067592928
 30
0.0
 11
191.6551889415001
 21
17.1673067592928
 31
0.0
  0
LINE
  5
193
330
156
100
AcDbEntity
  8
Skizziergeometrie(ISO)
100
AcDbLine
 10
191.6551889415001
 20
17.8339734259596
 30
0.0
 11
192.6913083387628
 21
17.8339734259596
 31
0.0
  0
LINE
  5
194
330
156
100
AcDbEntity
  8
Skizziergeometrie(ISO)
100
AcDbLine
 10
191.6551889415001
 20
19.36684167378358
 30
0.0
 11
191.6551889415001
 21
17.8339734259596
 31
0.0
  0
LINE
  5
195
330
156
100
AcDbEntity
  8
Skizziergeometrie(ISO)
100
AcDbLine
 10
192.5247341875995
 20
18.86518095487989
 30
0.0
 11
191.6551889415001
 21
19.36684167378358
 31
0.0
  0
LINE
  5
196
330
156
100
AcDbEntity
  8
Skizziergeometrie(ISO)
100
AcDbLine
 10
191.4884297593299
 20
20.23270689528218
 30
0.0
 11
192.857882489926
 21
19.44263801224573
 31
0.0
  0
LINE
  5
197
330
156
100
AcDbEntity
  8
Skizziergeometrie(ISO)
100
AcDbLine
 10
184.3218566169696
 20
15.84737070168959
 30
0.0
 11
184.3218566169696
 21
19.15390948356282
 31
0.0
  0
LINE
  5
198
330
156
100
AcDbEntity
  8
Skizziergeometrie(ISO)
100
AcDbLine
 10
184.9885232836365
 20
19.15390948356282
 30
0.0
 11
184.9885232836365
 21
15.84737070168959
 31
0.0
  0
LINE
  5
199
330
156
100
AcDbEntity
  8
Skizziergeometrie(ISO)
100
AcDbLine
 10
188.1563456297596
 20
13.44264419380229
 30
0.0
 11
185.9887104250881
 21
14.69320296572853
 31
0.0
  0
LINE
  5
19A
330
156
100
AcDbEntity
  8
Skizziergeometrie(ISO)
100
AcDbLine
 10
186.3218576257727
 20
15.27066065865696
 30
0.0
 11
188.4894939320861
 21
14.02010125116808
 31
0.0
  0
LINE
  5
19B
330
156
100
AcDbEntity
  8
Skizziergeometrie(ISO)
100
AcDbLine
 10
186.3218576257727
 20
19.94397836659928
 30
0.0
 11
186.3218576257727
 21
15.27066065865696
 31
0.0
  0
LINE
  5
19C
330
156
100
AcDbEntity
  8
Skizziergeometrie(ISO)
100
AcDbLine
 10
185.6551909591059
 20
15.27066193048824
 30
0.0
 11
185.6551909591059
 21
19.94397836659928
 31
0.0
  0
LINE
  5
19D
330
156
100
AcDbEntity
  8
Skizziergeometrie(ISO)
100
AcDbLine
 10
189.82741752042
 20
20.88518116554469
 30
0.0
 11
188.655189950303
 21
18.85482345606895
 31
0.0
  0
LINE
  5
19E
330
156
100
AcDbEntity
  8
Skizziergeometrie(ISO)
100
AcDbLine
 10
190.3218512040435
 20
14.28806850858179
 30
0.0
 11
190.3218512040435
 21
20.75269805930705
 31
0.0
  0
LINE
  5
19F
330
156
100
AcDbEntity
  8
Skizziergeometrie(ISO)
100
AcDbLine
 10
187.4829623801859
 20
20.88518116554469
 30
0.0
 11
188.655189950303
 21
18.85482345606895
 31
0.0
  0
LINE
  5
1A0
330
156
100
AcDbEntity
  8
Skizziergeometrie(ISO)
100
AcDbLine
 10
186.9885286965624
 20
15.84737070168959
 30
0.0
 11
186.9885286965624
 21
20.75269805930705
 31
0.0
  0
LINE
  5
1A1
330
156
100
AcDbEntity
  8
Skizziergeometrie(ISO)
100
AcDbLine
 10
188.655189950303
 20
12.50064009262539
 30
0.0
 11
180.2387546751623
 21
17.35627582828491
 31
0.0
  0
LINE
  5
1A2
330
156
100
AcDbEntity
  8
Skizziergeometrie(ISO)
100
AcDbLine
 10
197.0716252254436
 20
17.35627582828489
 30
0.0
 11
188.655189950303
 21
12.50064009262539
 31
0.0
  0
LINE
  5
1A3
330
156
100
AcDbEntity
  8
Skizziergeometrie(ISO)
100
AcDbLine
 10
188.655189950303
 20
22.50064009262702
 30
0.0
 11
197.0716252254436
 21
17.6450043569675
 31
0.0
  0
LINE
  5
1A4
330
156
100
AcDbEntity
  8
Skizziergeometrie(ISO)
100
AcDbLine
 10
180.2387546751623
 20
17.6450043569675
 30
0.0
 11
188.655189950303
 21
22.50064009262702
 31
0.0
  0
LINE
  5
1A5
330
156
100
AcDbEntity
  8
Skizziergeometrie(ISO)
100
AcDbLine
 10
187.6551953632293
 20
19.25353601487277
 30
0.0
 11
187.6551953632293
 21
15.84737070168959
 31
0.0
  0
LINE
  5
1A6
330
156
100
AcDbEntity
  8
Skizziergeometrie(ISO)
100
AcDbLine
 10
188.5108523830057
 20
17.77149458276708
 30
0.0
 11
187.6551953632293
 21
19.25353601487277
 31
0.0
  0
LINE
  5
1A7
330
156
100
AcDbEntity
  8
Skizziergeometrie(ISO)
100
AcDbLine
 10
189.6551845373767
 20
19.25353601487275
 30
0.0
 11
188.7995275176003
 21
17.77149458276708
 31
0.0
  0
LINE
  5
1A8
330
156
100
AcDbEntity
  8
Skizziergeometrie(ISO)
100
AcDbLine
 10
189.6551845373766
 20
14.28806850858179
 30
0.0
 11
189.6551845373767
 21
19.25353601487275
 31
0.0
  0
ARC
  5
1A9
330
156
100
AcDbEntity
  8
Skizziergeometrie(ISO)
100
AcDbCircle
 10
192.6913083387628
 20
15.84737070168959
 30
0.0
 40
0.3333333333333919
100
AcDbArc
 50
299.9816393688527
 51
119.98163936886
  0
ARC
  5
1AA
330
156
100
AcDbEntity
  8
Skizziergeometrie(ISO)
100
AcDbCircle
 10
192.6913083387628
 20
17.5006400926262
 30
0.0
 40
0.333333333333396
100
AcDbArc
 50
270.0
 51
90.0
  0
ARC
  5
1AB
330
156
100
AcDbEntity
  8
Skizziergeometrie(ISO)
100
AcDbCircle
 10
192.6913083387628
 20
19.15390948356282
 30
0.0
 40
0.3333333333333963
100
AcDbArc
 50
240.0183606311413
 51
60.01836063114108
  0
ARC
  5
1AC
330
156
100
AcDbEntity
  8
Skizziergeometrie(ISO)
100
AcDbCircle
 10
184.655189950303
 20
15.84737070168959
 30
0.0
 40
0.3333333333333997
100
AcDbArc
 50
180.0
 51
0.0
  0
ARC
  5
1AD
330
156
100
AcDbEntity
  8
Skizziergeometrie(ISO)
100
AcDbCircle
 10
184.655189950303
 20
19.15390948356282
 30
0.0
 40
0.3333333333333996
100
AcDbArc
 50
0.0
 51
180.0
  0
ARC
  5
1AE
330
156
100
AcDbEntity
  8
Skizziergeometrie(ISO)
100
AcDbCircle
 10
188.3229197809228
 20
13.73137272248517
 30
0.0
 40
0.333333333333396
100
AcDbArc
 50
240.0183606311468
 51
60.01836063114108
  0
ARC
  5
1AF
330
156
100
AcDbEntity
  8
Skizziergeometrie(ISO)
100
AcDbCircle
 10
185.9885242924393
 20
19.94397836659928
 30
0.0
 40
0.333333333333396
100
AcDbArc
 50
0.0
 51
180.0
  0
ARC
  5
1B0
330
156
100
AcDbEntity
  8
Skizziergeometrie(ISO)
100
AcDbCircle
 10
190.0568849915682
 20
20.75269805930704
 30
0.0
 40
0.2649662124752865
100
AcDbArc
 50
0.0
 51
149.9999999999956
  0
ARC
  5
1B1
330
156
100
AcDbEntity
  8
Skizziergeometrie(ISO)
100
AcDbCircle
 10
189.98851787071
 20
14.28806850858179
 30
0.0
 40
0.3333333333334023
100
AcDbArc
 50
180.0
 51
0.0
  0
ARC
  5
1B2
330
156
100
AcDbEntity
  8
Skizziergeometrie(ISO)
100
AcDbCircle
 10
187.3218620298959
 20
15.84737070168959
 30
0.0
 40
0.333333333333396
100
AcDbArc
 50
180.0
 51
0.0
  0
ARC
  5
1B3
330
156
100
AcDbEntity
  8
Skizziergeometrie(ISO)
100
AcDbCircle
 10
187.2534949090378
 20
20.75269805930705
 30
0.0
 40
0.2649662124752854
100
AcDbArc
 50
29.99999999999976
 51
180.0
  0
ARC
  5
1B4
330
156
100
AcDbEntity
  8
Skizziergeometrie(ISO)
100
AcDbCircle
 10
191.3218556081666
 20
15.05730181865312
 30
0.0
 40
0.333333333333396
100
AcDbArc
 50
180.0
 51
299.9816393688587
  0
ARC
  5
1B5
330
156
100
AcDbEntity
  8
Skizziergeometrie(ISO)
100
AcDbCircle
 10
191.3218556081666
 20
19.94397836659928
 30
0.0
 40
0.333333333333396
100
AcDbArc
 50
60.01836063114071
 51
180.0
  0
ARC
  5
1B6
330
156
100
AcDbEntity
  8
Skizziergeometrie(ISO)
100
AcDbCircle
 10
196.9883381498621
 20
17.5006400926262
 30
0.0
 40
0.1666666666665381
100
AcDbArc
 50
299.9816393688627
 51
60.01836063115012
  0
ARC
  5
1B7
330
156
100
AcDbEntity
  8
Skizziergeometrie(ISO)
100
AcDbCircle
 10
180.3220417507439
 20
17.5006400926262
 30
0.0
 40
0.1666666666665381
100
AcDbArc
 50
119.9816393688498
 51
240.0183606311497
  0
ARC
  5
1B8
330
156
100
AcDbEntity
  8
Skizziergeometrie(ISO)
100
AcDbCircle
 10
186.3218598278342
 20
15.27066193048824
 30
0.0
 40
0.6666688687282916
100
AcDbArc
 50
180.0
 51
240.0183606311453
  0
ARC
  5
1B9
330
156
100
AcDbEntity
  8
Skizziergeometrie(ISO)
100
AcDbCircle
 10
188.655189950303
 20
17.85482791610036
 30
0.0
 40
0.1666666666665381
100
AcDbArc
 50
209.9999999999999
 51
330.0000000000001
  0
LINE
  5
1BA
330
156
100
AcDbEntity
  8
Skizzierlinie(TC_020513_DIN)
100
AcDbLine
 10
20.98018995030303
 20
25.00064009262621
 30
0.0
 11
20.98018995030303
 21
17.5006400926262
 31
0.0
  0
LINE
  5
1BB
330
156
100
AcDbEntity
  8
Skizzierlinie(TC_020513_DIN)
100
AcDbLine
 10
20.98018995030303
 20
17.5006400926262
 30
0.0
 11
20.980189950303
 21
10.0006400926262
 31
0.0
  0
LINE
  5
1BC
330
156
100
AcDbEntity
  8
Skizzierlinie(TC_020513_DIN)
100
AcDbLine
 10
49.98018995030306
 20
25.00064009262621
 30
0.0
 11
29.98018995030301
 21
17.5006400926262
 31
0.0
  0
LINE
  5
1BD
330
156
100
AcDbEntity
  8
Skizzierlinie(TC_020513_DIN)
100
AcDbLine
 10
177.3301899503031
 20
25.0006400926262
 30
0.0
 11
159.980189950303
 21
20.0006400926262
 31
0.0
  0
LINE
  5
1BE
330
156
100
AcDbEntity
  8
Skizzierlinie(TC_020513_DIN)
100
AcDbLine
 10
159.980189950303
 20
20.0006400926262
 30
0.0
 11
177.3301899503031
 21
10.0006400926262
 31
0.0
  0
LINE
  5
1BF
330
156
100
AcDbEntity
  8
Skizziergeometrie(ISO)
100
AcDbLine
 10
19.98018995030303
 20
45.0006400926262
 30
0.0
 11
19.98018995030303
 21
10.0006400926262
 31
0.0
  0
LINE
  5
1C0
330
156
100
AcDbEntity
  8
Skizzierlinie(TC_020513_DIN)
100
AcDbLine
 10
50.98018995030301
 20
25.00064009262621
 30
0.0
 11
50.98018995030301
 21
17.5006400926262
 31
0.0
  0
LINE
  5
1C1
330
156
100
AcDbEntity
  8
Skizzierlinie(TC_020513_DIN)
100
AcDbLine
 10
50.98018995030301
 20
17.5006400926262
 30
0.0
 11
50.98018995030301
 21
10.0006400926262
 31
0.0
  0
MTEXT
  5
1C2
330
156
100
AcDbEntity
  8
Symbole(ISO)
 62
     7
100
AcDbMText
 10
20.98018995030303
 20
21.2506400926262
 30
0.0
 40
2.5
 41
8.997516465920178
 71
     4
 72
     1
  1
 Date
  7
TC 2_5 mm
 73
     1
 44
1.0
1001
ACAD
1000
MTEXTBEGIN
1070
    73
1070
     1
1070
    44
1040
1.0
1070
    74
1070
     0
1000
MTEXTEND
  0
MTEXT
  5
1C3
330
156
100
AcDbEntity
  8
Symbole(ISO)
 62
     7
100
AcDbMText
 10
20.980189950303
 20
13.7506400926262
 30
0.0
 40
2.5
 41
8.970966064125889
 71
     4
 72
     1
  1
 Sign.
  7
TC 2_5 mm
 73
     1
 44
1.0
1001
ACAD
1000
MTEXTBEGIN
1070
    73
1070
     1
1070
    44
1040
1.0
1070
    74
1070
     0
1000
MTEXTEND
  0
MTEXT
  5
1C4
330
156
100
AcDbEntity
  8
Symbole(ISO)
 62
     7
100
AcDbMText
 10
168.655189950303
 20
22.5006400926262
 30
0.0
 40
2.5
 41
17.34061856478945
 71
     5
 72
     1
  1
Scale
  7
TC 2_5 mm
 73
     1
 44
1.0
1001
ACAD
1000
MTEXTBEGIN
1070
    73
1070
     1
1070
    44
1040
1.0
1070
    74
1070
     0
1000
MTEXTEND
  0
MTEXT
  5
1C5
330
156
100
AcDbEntity
  8
Symbole(ISO)
 62
     7
100
AcDbMText
 10
39.98018995030301
 20
21.2506400926262
 30
0.0
 40
3.499999940395355
 41
20.95325017112982
 71
     5
 72
     1
  1
14.12.2006
  7
TC 3_5 mm
 73
     1
 44
1.0
1001
ACAD
1000
MTEXTBEGIN
1070
    73
1070
     1
1070
    44
1040
1.0
1070
    74
1070
     0
1000
MTEXTEND
  0
ATTDEF
  5
1C6
330
156
100
AcDbEntity
  8
Symbole(ISO)
 62
     7
100
AcDbText
 10
50.98018995030301
 20
11.75064006282388
 30
0.0
 40
4.000000059604644
  1
hood top entry 1 lev. M32 no adapt.
 41
1.199999928474426
  7
Kopie von TC 5 mm
 11
50.98018995030301
 21
13.7506400926262
 31
0.0
100
AcDbAttributeDefinition
  3
BEZEICHNUNG
  2
BEZEICHNUNG
 70
     0
 74
     2
  0
ATTDEF
  5
1C7
330
156
100
AcDbEntity
  8
Symbole(ISO)
 62
     7
100
AcDbText
 10
164.2856470919772
 20
12.5006400926262
 30
0.0
 40
5.0
  1
1:1
 41
0.899999976158142
  7
TC 5 mm
 72
     1
 11
168.655189950303
 21
15.0006400926262
 31
0.0
100
AcDbAttributeDefinition
  3
FirstViewScale
  2
FirstViewScale
 70
     0
 74
     2
  0
ATTDEF
  5
1C8
330
156
100
AcDbEntity
  8
Symbole(ISO)
 62
     7
100
AcDbText
 10
50.98018995030301
 20
19.25064006282388
 30
0.0
 40
4.000000059604644
  1
MVFV 16 LG32
 41
1.199999928474426
  7
Kopie von TC 5 mm
 11
50.98018995030301
 21
21.2506400926262
 31
0.0
100
AcDbAttributeDefinition
  3
BAUTEILNUMMER
  2
BAUTEILNUMMER
 70
     0
 74
     2
  0
ENDBLK
  5
158
330
156
100
AcDbEntity
  8
0
100
AcDbBlockEnd
  0
BLOCK
  5
6D2
330
6C7
100
AcDbEntity
  8
0
100
AcDbBlockBegin
  2
*D11
 70
     1
 10
0.0
 20
0.0
 30
0.0
  3
*D11
  1

  0
LINE
  5
782
330
6C7
100
AcDbEntity
  8
Bemaßungen(TC_020513_DIN)
  6
Continuous
 62
     7
370
    25
100
AcDbLine
 10
93.61945295909384
 20
71.39516801778771
 30
0.0
 11
93.61945295909384
 21
60.39516801778771
 31
0.0
  0
LINE
  5
783
330
6C7
100
AcDbEntity
  8
Bemaßungen(TC_020513_DIN)
  6
Continuous
 62
     7
370
    25
100
AcDbLine
 10
127.9434529590938
 20
71.39516801778771
 30
0.0
 11
127.9434529590938
 21
60.39516801778771
 31
0.0
  0
LINE
  5
784
330
6C7
100
AcDbEntity
  8
Bemaßungen(TC_020513_DIN)
  6
Continuous
 62
     7
370
    25
100
AcDbLine
 10
96.11945295909386
 20
62.39516801778771
 30
0.0
 11
125.4434529590938
 21
62.39516801778771
 31
0.0
  0
SOLID
  5
785
330
6C7
100
AcDbEntity
  8
Bemaßungen(TC_020513_DIN)
  6
Continuous
 62
     7
100
AcDbTrace
 10
96.11945295909386
 20
62.81183468445437
 30
0.0
 11
96.11945295909386
 21
61.97850135112105
 31
0.0
 12
93.61945295909384
 22
62.39516801778771
 32
0.0
 13
93.61945295909384
 23
62.39516801778771
 33
0.0
  0
SOLID
  5
786
330
6C7
100
AcDbEntity
  8
Bemaßungen(TC_020513_DIN)
  6
Continuous
 62
     7
100
AcDbTrace
 10
125.4434529590938
 20
62.81183468445437
 30
0.0
 11
125.4434529590938
 21
61.97850135112105
 31
0.0
 12
127.9434529590938
 22
62.39516801778771
 32
0.0
 13
127.9434529590938
 23
62.39516801778771
 33
0.0
  0
MTEXT
  5
787
330
6C7
100
AcDbEntity
  8
Bemaßungen(TC_020513_DIN)
  6
Continuous
 62
     7
370
    25
100
AcDbMText
 10
105.6567940232139
 20
66.77156638067994
 30
0.0
 40
3.5
 41
0.0
 71
     1
 72
     1
  1
\A1; M32
  7
Aktuell-BSI
 73
     1
 44
1.0
1001
ACAD
1000
MTEXTBEGIN
1070
    73
1070
     1
1070
    44
1040
1.0
1070
    74
1070
     0
1000
MTEXTEND
  0
POINT
  5
788
330
6C7
100
AcDbEntity
  8
Defpoints
  6
Continuous
 62
     0
100
AcDbPoint
 10
93.61945295909384
 20
72.39516801778771
 30
0.0
  0
POINT
  5
789
330
6C7
100
AcDbEntity
  8
Defpoints
  6
Continuous
 62
     0
100
AcDbPoint
 10
127.9434529590938
 20
72.39516801778771
 30
0.0
  0
POINT
  5
78A
330
6C7
100
AcDbEntity
  8
Defpoints
  6
Continuous
 62
     0
100
AcDbPoint
 10
127.9434529590938
 20
62.39516801778771
 30
0.0
  0
ENDBLK
  5
6D3
330
6C7
100
AcDbEntity
  8
0
100
AcDbBlockEnd
  0
BLOCK
  5
797
330
78C
100
AcDbEntity
  8
0
100
AcDbBlockBegin
  2
*D12
 70
     1
 10
0.0
 20
0.0
 30
0.0
  3
*D12
  1

  0
LINE
  5
842
330
78C
100
AcDbEntity
  8
Bemaßungen(TC_020513_DIN)
  6
Continuous
 62
     7
370
    25
100
AcDbLine
 10
197.1891298758676
 20
130.067817748598
 30
0.0
 11
197.1891298758676
 21
178.2730422076115
 31
0.0
  0
LINE
  5
843
330
78C
100
AcDbEntity
  8
Bemaßungen(TC_020513_DIN)
  6
Continuous
 62
     7
370
    25
100
AcDbLine
 10
264.8730798475851
 20
134.3951680177877
 30
0.0
 11
264.8730798475851
 21
178.2730422076115
 31
0.0
  0
LINE
  5
844
330
78C
100
AcDbEntity
  8
Bemaßungen(TC_020513_DIN)
  6
Continuous
 62
     7
370
    25
100
AcDbLine
 10
199.6891298758676
 20
176.2730422076115
 30
0.0
 11
262.3730798475851
 21
176.2730422076115
 31
0.0
  0
SOLID
  5
845
330
78C
100
AcDbEntity
  8
Bemaßungen(TC_020513_DIN)
  6
Continuous
 62
     7
100
AcDbTrace
 10
199.6891298758676
 20
176.6897088742781
 30
0.0
 11
199.6891298758676
 21
175.8563755409448
 31
0.0
 12
197.1891298758676
 22
176.2730422076115
 32
0.0
 13
197.1891298758676
 23
176.2730422076115
 33
0.0
  0
SOLID
  5
846
330
78C
100
AcDbEntity
  8
Bemaßungen(TC_020513_DIN)
  6
Continuous
 62
     7
100
AcDbTrace
 10
262.3730798475851
 20
176.6897088742781
 30
0.0
 11
262.3730798475851
 21
175.8563755409448
 31
0.0
 12
264.8730798475851
 22
176.2730422076115
 32
0.0
 13
264.8730798475851
 23
176.2730422076115
 33
0.0
  0
MTEXT
  5
847
330
78C
100
AcDbEntity
  8
Bemaßungen(TC_020513_DIN)
  6
Continuous
 62
     7
370
    25
100
AcDbMText
 10
228.5111526107031
 20
180.6470531216633
 30
0.0
 40
3.5
 41
0.0
 71
     1
 72
     1
  1
\A1;68
  7
Aktuell-BSI
 73
     1
 44
1.0
1001
ACAD
1000
MTEXTBEGIN
1070
    73
1070
     1
1070
    44
1040
1.0
1070
    74
1070
     0
1000
MTEXTEND
  0
POINT
  5
848
330
78C
100
AcDbEntity
  8
Defpoints
  6
Continuous
 62
     0
100
AcDbPoint
 10
197.1891298758676
 20
129.067817748598
 30
0.0
  0
POINT
  5
849
330
78C
100
AcDbEntity
  8
Defpoints
  6
Continuous
 62
     0
100
AcDbPoint
 10
264.8730798475851
 20
133.3951680177877
 30
0.0
  0
POINT
  5
84A
330
78C
100
AcDbEntity
  8
Defpoints
  6
Continuous
 62
     0
100
AcDbPoint
 10
264.8730798475851
 20
176.2730422076115
 30
0.0
  0
ENDBLK
  5
798
330
78C
100
AcDbEntity
  8
0
100
AcDbBlockEnd
  0
BLOCK
  5
857
330
84C
100
AcDbEntity
  8
0
100
AcDbBlockBegin
  2
*D13
 70
     1
 10
0.0
 20
0.0
 30
0.0
  3
*D13
  1

  0
LINE
  5
8FD
330
84C
100
AcDbEntity
  8
Bemaßungen(TC_020513_DIN)
  6
Continuous
 62
     7
370
    25
100
AcDbLine
 10
198.9391298758666
 20
153.3951680177877
 30
0.0
 11
179.8001380991616
 21
153.3951680177877
 31
0.0
  0
LINE
  5
8FE
330
84C
100
AcDbEntity
  8
Bemaßungen(TC_020513_DIN)
  6
Continuous
 62
     7
370
    25
100
AcDbLine
 10
202.1891298758664
 20
72.39516801778771
 30
0.0
 11
179.8001380991616
 21
72.39516801778771
 31
0.0
  0
LINE
  5
8FF
330
84C
100
AcDbEntity
  8
Bemaßungen(TC_020513_DIN)
  6
Continuous
 62
     7
370
    25
100
AcDbLine
 10
181.8001380991616
 20
150.8951680177877
 30
0.0
 11
181.8001380991616
 21
74.89516801778771
 31
0.0
  0
SOLID
  5
900
330
84C
100
AcDbEntity
  8
Bemaßungen(TC_020513_DIN)
  6
Continuous
 62
     7
100
AcDbTrace
 10
181.383471432495
 20
150.8951680177877
 30
0.0
 11
182.2168047658283
 21
150.8951680177877
 31
0.0
 12
181.8001380991616
 22
153.3951680177877
 32
0.0
 13
181.8001380991616
 23
153.3951680177877
 33
0.0
  0
SOLID
  5
901
330
84C
100
AcDbEntity
  8
Bemaßungen(TC_020513_DIN)
  6
Continuous
 62
     7
100
AcDbTrace
 10
181.383471432495
 20
74.89516801778771
 30
0.0
 11
182.2168047658283
 21
74.89516801778771
 31
0.0
 12
181.8001380991616
 22
72.39516801778771
 32
0.0
 13
181.8001380991616
 23
72.39516801778771
 33
0.0
  0
MTEXT
  5
902
330
84C
100
AcDbEntity
  8
Bemaßungen(TC_020513_DIN)
  6
Continuous
 62
     7
370
    25
100
AcDbMText
 10
177.4261271851098
 20
110.7237832974603
 30
0.0
 40
3.5
 41
0.0
 71
     1
 72
     1
  1
\A1;81
  7
Aktuell-BSI
 11
0.0000000000000001
 21
1.0
 31
0.0
 73
     1
 44
1.0
1001
ACAD
1000
MTEXTBEGIN
1070
    73
1070
     1
1070
    44
1040
1.0
1070
    74
1070
     0
1000
MTEXTEND
  0
POINT
  5
903
330
84C
100
AcDbEntity
  8
Defpoints
  6
Continuous
 62
     0
100
AcDbPoint
 10
199.9391298758666
 20
153.3951680177877
 30
0.0
  0
POINT
  5
904
330
84C
100
AcDbEntity
  8
Defpoints
  6
Continuous
 62
     0
100
AcDbPoint
 10
203.1891298758664
 20
72.39516801778771
 30
0.0
  0
POINT
  5
905
330
84C
100
AcDbEntity
  8
Defpoints
  6
Continuous
 62
     0
100
AcDbPoint
 10
181.8001380991616
 20
72.39516801778771
 30
0.0
  0
ENDBLK
  5
858
330
84C
100
AcDbEntity
  8
0
100
AcDbBlockEnd
  0
BLOCK
  5
912
330
907
100
AcDbEntity
  8
0
100
AcDbBlockBegin
  2
*D14
 70
     1
 10
0.0
 20
0.0
 30
0.0
  3
*D14
  1

  0
LINE
  5
9BD
330
907
100
AcDbEntity
  8
Bemaßungen(TC_020513_DIN)
  6
Continuous
 62
     7
370
    25
100
AcDbLine
 10
64.03145295909386
 20
100.7314928831929
 30
0.0
 11
64.03145295909386
 21
50.3951680177877
 31
0.0
  0
LINE
  5
9BE
330
907
100
AcDbEntity
  8
Bemaßungen(TC_020513_DIN)
  6
Continuous
 62
     7
370
    25
100
AcDbLine
 10
157.5314529590938
 20
73.39516801778771
 30
0.0
 11
157.5314529590938
 21
50.3951680177877
 31
0.0
  0
LINE
  5
9BF
330
907
100
AcDbEntity
  8
Bemaßungen(TC_020513_DIN)
  6
Continuous
 62
     7
370
    25
100
AcDbLine
 10
66.53145295909386
 20
52.3951680177877
 30
0.0
 11
155.0314529590938
 21
52.3951680177877
 31
0.0
  0
SOLID
  5
9C0
330
907
100
AcDbEntity
  8
Bemaßungen(TC_020513_DIN)
  6
Continuous
 62
     7
100
AcDbTrace
 10
66.53145295909386
 20
52.81183468445437
 30
0.0
 11
66.53145295909386
 21
51.97850135112104
 31
0.0
 12
64.03145295909386
 22
52.3951680177877
 32
0.0
 13
64.03145295909386
 23
52.3951680177877
 33
0.0
  0
SOLID
  5
9C1
330
907
100
AcDbEntity
  8
Bemaßungen(TC_020513_DIN)
  6
Continuous
 62
     7
100
AcDbTrace
 10
155.0314529590938
 20
52.81183468445437
 30
0.0
 11
155.0314529590938
 21
51.97850135112104
 31
0.0
 12
157.5314529590938
 22
52.3951680177877
 32
0.0
 13
157.5314529590938
 23
52.3951680177877
 33
0.0
  0
MTEXT
  5
9C2
330
907
100
AcDbEntity
  8
Bemaßungen(TC_020513_DIN)
  6
Continuous
 62
     7
370
    25
100
AcDbMText
 10
106.2226193983844
 20
57.40185287454077
 30
0.0
 40
3.5
 41
0.0
 71
     1
 72
     1
  1
\A1;93,5
  7
Aktuell-BSI
 73
     1
 44
1.0
1001
ACAD
1000
MTEXTBEGIN
1070
    73
1070
     1
1070
    44
1040
1.0
1070
    74
1070
     0
1000
MTEXTEND
  0
POINT
  5
9C3
330
907
100
AcDbEntity
  8
Defpoints
  6
Continuous
 62
     0
100
AcDbPoint
 10
64.03145295909386
 20
101.7314928831929
 30
0.0
  0
POINT
  5
9C4
330
907
100
AcDbEntity
  8
Defpoints
  6
Continuous
 62
     0
100
AcDbPoint
 10
157.5314529590938
 20
74.39516801778771
 30
0.0
  0
POINT
  5
9C5
330
907
100
AcDbEntity
  8
Defpoints
  6
Continuous
 62
     0
100
AcDbPoint
 10
157.5314529590938
 20
52.3951680177877
 30
0.0
  0
ENDBLK
  5
913
330
907
100
AcDbEntity
  8
0
100
AcDbBlockEnd
  0
BLOCK
  5
9D2
330
9C7
100
AcDbEntity
  8
0
100
AcDbBlockBegin
  2
*D15
 70
     1
 10
0.0
 20
0.0
 30
0.0
  3
*D15
  1

  0
LINE
  5
A82
330
9C7
100
AcDbEntity
  8
Bemaßungen(TC_020513_DIN)
  6
Continuous
 62
     7
370
    25
100
AcDbLine
 10
197.1891298758676
 20
73.39516801778771
 30
0.0
 11
197.1891298758676
 21
50.3951680177877
 31
0.0
  0
LINE
  5
A83
330
9C7
100
AcDbEntity
  8
Bemaßungen(TC_020513_DIN)
  6
Continuous
 62
     7
370
    25
100
AcDbLine
 10
240.6891298758676
 20
73.39516801778771
 30
0.0
 11
240.6891298758676
 21
50.3951680177877
 31
0.0
  0
LINE
  5
A84
330
9C7
100
AcDbEntity
  8
Bemaßungen(TC_020513_DIN)
  6
Continuous
 62
     7
370
    25
100
AcDbLine
 10
199.6891298758676
 20
52.3951680177877
 30
0.0
 11
238.1891298758676
 21
52.3951680177877
 31
0.0
  0
SOLID
  5
A85
330
9C7
100
AcDbEntity
  8
Bemaßungen(TC_020513_DIN)
  6
Continuous
 62
     7
100
AcDbTrace
 10
199.6891298758676
 20
52.81183468445437
 30
0.0
 11
199.6891298758676
 21
51.97850135112104
 31
0.0
 12
197.1891298758676
 22
52.3951680177877
 32
0.0
 13
197.1891298758676
 23
52.3951680177877
 33
0.0
  0
SOLID
  5
A86
330
9C7
100
AcDbEntity
  8
Bemaßungen(TC_020513_DIN)
  6
Continuous
 62
     7
100
AcDbTrace
 10
238.1891298758676
 20
52.81183468445437
 30
0.0
 11
238.1891298758676
 21
51.97850135112104
 31
0.0
 12
240.6891298758676
 22
52.3951680177877
 32
0.0
 13
240.6891298758676
 23
52.3951680177877
 33
0.0
  0
MTEXT
  5
A87
330
9C7
100
AcDbEntity
  8
Bemaßungen(TC_020513_DIN)
  6
Continuous
 62
     7
370
    25
100
AcDbMText
 10
214.3098665743669
 20
57.40185287454077
 30
0.0
 40
3.5
 41
0.0
 71
     1
 72
     1
  1
\A1;43,5
  7
Aktuell-BSI
 73
     1
 44
1.0
1001
ACAD
1000
MTEXTBEGIN
1070
    73
1070
     1
1070
    44
1040
1.0
1070
    74
1070
     0
1000
MTEXTEND
  0
POINT
  5
A88
330
9C7
100
AcDbEntity
  8
Defpoints
  6
Continuous
 62
     0
100
AcDbPoint
 10
197.1891298758676
 20
74.39516801778771
 30
0.0
  0
POINT
  5
A89
330
9C7
100
AcDbEntity
  8
Defpoints
  6
Continuous
 62
     0
100
AcDbPoint
 10
240.6891298758676
 20
74.39516801778771
 30
0.0
  0
POINT
  5
A8A
330
9C7
100
AcDbEntity
  8
Defpoints
  6
Continuous
 62
     0
100
AcDbPoint
 10
240.6891298758676
 20
52.3951680177877
 30
0.0
  0
ENDBLK
  5
9D3
330
9C7
100
AcDbEntity
  8
0
100
AcDbBlockEnd
  0
BLOCK
  5
A97
330
A8C
100
AcDbEntity
  8
0
100
AcDbBlockBegin
  2
*D16
 70
     1
 10
0.0
 20
0.0
 30
0.0
  3
*D16
  1

  0
LINE
  5
B42
330
A8C
100
AcDbEntity
  8
Bemaßungen(TC_020513_DIN)
  6
Continuous
 62
     7
370
    25
100
AcDbLine
 10
57.03145295909386
 20
145.3951680177877
 30
0.0
 11
57.03145295909386
 21
178.2730422076115
 31
0.0
  0
LINE
  5
B43
330
A8C
100
AcDbEntity
  8
Bemaßungen(TC_020513_DIN)
  6
Continuous
 62
     7
370
    25
100
AcDbLine
 10
164.5314529590939
 20
145.3951680177877
 30
0.0
 11
164.5314529590939
 21
178.2730422076115
 31
0.0
  0
LINE
  5
B44
330
A8C
100
AcDbEntity
  8
Bemaßungen(TC_020513_DIN)
  6
Continuous
 62
     7
370
    25
100
AcDbLine
 10
59.53145295909386
 20
176.2730422076115
 30
0.0
 11
162.0314529590939
 21
176.2730422076115
 31
0.0
  0
SOLID
  5
B45
330
A8C
100
AcDbEntity
  8
Bemaßungen(TC_020513_DIN)
  6
Continuous
 62
     7
100
AcDbTrace
 10
59.53145295909386
 20
176.6897088742781
 30
0.0
 11
59.53145295909386
 21
175.8563755409448
 31
0.0
 12
57.03145295909386
 22
176.2730422076115
 32
0.0
 13
57.03145295909386
 23
176.2730422076115
 33
0.0
  0
SOLID
  5
B46
330
A8C
100
AcDbEntity
  8
Bemaßungen(TC_020513_DIN)
  6
Continuous
 62
     7
100
AcDbTrace
 10
162.0314529590939
 20
176.6897088742781
 30
0.0
 11
162.0314529590939
 21
175.8563755409448
 31
0.0
 12
164.5314529590939
 22
176.2730422076115
 32
0.0
 13
164.5314529590939
 23
176.2730422076115
 33
0.0
  0
MTEXT
  5
B47
330
A8C
100
AcDbEntity
  8
Bemaßungen(TC_020513_DIN)
  6
Continuous
 62
     7
370
    25
100
AcDbMText
 10
105.0277012537732
 20
181.2797270643645
 30
0.0
 40
3.5
 41
0.0
 71
     1
 72
     1
  1
\A1;107,5
  7
Aktuell-BSI
 73
     1
 44
1.0
1001
ACAD
1000
MTEXTBEGIN
1070
    73
1070
     1
1070
    44
1040
1.0
1070
    74
1070
     0
1000
MTEXTEND
  0
POINT
  5
B48
330
A8C
100
AcDbEntity
  8
Defpoints
  6
Continuous
 62
     0
100
AcDbPoint
 10
57.03145295909386
 20
144.3951680177877
 30
0.0
  0
POINT
  5
B49
330
A8C
100
AcDbEntity
  8
Defpoints
  6
Continuous
 62
     0
100
AcDbPoint
 10
164.5314529590939
 20
144.3951680177877
 30
0.0
  0
POINT
  5
B4A
330
A8C
100
AcDbEntity
  8
Defpoints
  6
Continuous
 62
     0
100
AcDbPoint
 10
164.5314529590939
 20
176.2730422076115
 30
0.0
  0
ENDBLK
  5
A98
330
A8C
100
AcDbEntity
  8
0
100
AcDbBlockEnd
  0
ENDSEC
  0
SECTION
  2
ENTITIES
  0
INSERT
  5
155
330
37
100
AcDbEntity
  8
0
100
AcDbBlockReference
  2
Ränder Ilme Rahmen A4 quer
 10
0.0
 20
0.0
 30
0.0
  0
INSERT
  5
1C9
330
37
100
AcDbEntity
  8
0
100
AcDbBlockReference
 66
     1
  2
Schriftfelder Ilme
 10
87.01981004969702
 20
-0.0006400926262484
 30
0.0
  0
ATTRIB
  5
1CB
330
1C9
100
AcDbEntity
  8
Symbole(ISO)
 62
     7
100
AcDbText
 10
138.0
 20
11.74999997019763
 30
0.0
 40
4.000000059604644
  1
hood top entry 1 lev. M32 no adapt.
 41
1.199999928474426
  7
Kopie von TC 5 mm
 11
138.0
 21
13.74999999999995
 31
0.0
100
AcDbAttribute
  2
BEZEICHNUNG
 70
     0
 74
     2
  0
ATTRIB
  5
1CC
330
1C9
100
AcDbEntity
  8
Symbole(ISO)
 62
     7
100
AcDbText
 10
251.3054571416743
 20
12.49999999999995
 30
0.0
 40
5.0
  1
1:1
 41
0.899999976158142
  7
TC 5 mm
 72
     1
 11
255.675
 21
14.99999999999995
 31
0.0
100
AcDbAttribute
  2
FirstViewScale
 70
     0
 74
     2
  0
ATTRIB
  5
1CD
330
1C9
100
AcDbEntity
  8
Symbole(ISO)
 62
     7
100
AcDbText
 10
138.0
 20
19.24999997019763
 30
0.0
 40
4.000000059604644
  1
MVFV 16 LG32
 41
1.199999928474426
  7
Kopie von TC 5 mm
 11
138.0
 21
21.24999999999996
 31
0.0
100
AcDbAttribute
  2
BAUTEILNUMMER
 70
     0
 74
     2
  0
SEQEND
  5
1CA
330
1C9
100
AcDbEntity
  8
0
  0
ARC
  5
1CE
330
37
100
AcDbEntity
  8
Sichtbare Kanten(TC_020513_DIN)
100
AcDbCircle
 10
113.7814529590938
 20
154.8951680177877
 30
0.0
 40
0.2499999999999991
100
AcDbArc
 50
270.0
 51
90.0
  0
LINE
  5
1CF
330
37
100
AcDbEntity
  8
Sichtbare Kanten(TC_020513_DIN)
100
AcDbLine
 10
113.7814529590938
 20
154.6451680177877
 30
0.0
 11
113.0314529590938
 21
154.6451680177877
 31
0.0
  0
LINE
  5
1D0
330
37
100
AcDbEntity
  8
Sichtbare Kanten(TC_020513_DIN)
100
AcDbLine
 10
113.0314529590938
 20
154.6451680177877
 30
0.0
 11
113.0314529590938
 21
153.597731942388
 31
0.0
  0
LINE
  5
1D1
330
37
100
AcDbEntity
  8
Sichtbare Kanten(TC_020513_DIN)
100
AcDbLine
 10
113.0314529590938
 20
153.597731942388
 30
0.0
 11
113.6565223457214
 21
153.9583488962116
 31
0.0
  0
ARC
  5
1D2
330
37
100
AcDbEntity
  8
Sichtbare Kanten(TC_020513_DIN)
100
AcDbCircle
 10
113.7814529590938
 20
153.7418024996995
 30
0.0
 40
0.2500000000000026
100
AcDbArc
 50
299.9816393688505
 51
119.9816393688506
  0
LINE
  5
1D3
330
37
100
AcDbEntity
  8
Sichtbare Kanten(TC_020513_DIN)
100
AcDbLine
 10
113.9063835724662
 20
153.5252561031873
 30
0.0
 11
112.9063835724662
 21
152.9483330262642
 31
0.0
  0
ARC
  5
1D4
330
37
100
AcDbEntity
  8
Sichtbare Kanten(TC_020513_DIN)
100
AcDbCircle
 10
112.7814529590938
 20
153.1648794227764
 30
0.0
 40
0.2499999999999991
100
AcDbArc
 50
180.0
 51
299.981639368847
  0
LINE
  5
1D5
330
37
100
AcDbEntity
  8
Sichtbare Kanten(TC_020513_DIN)
100
AcDbLine
 10
112.5314529590938
 20
153.1648794227764
 30
0.0
 11
112.5314529590938
 21
156.625456612799
 31
0.0
  0
LINE
  5
1D6
330
37
100
AcDbEntity
  8
Sichtbare Kanten(TC_020513_DIN)
100
AcDbLine
 10
113.0314529590938
 20
155.1451680177877
 30
0.0
 11
113.7814529590938
 21
155.1451680177877
 31
0.0
  0
LINE
  5
1D7
330
37
100
AcDbEntity
  8
Sichtbare Kanten(TC_020513_DIN)
100
AcDbLine
 10
113.0314529590938
 20
156.1926040931874
 30
0.0
 11
113.0314529590938
 21
155.1451680177877
 31
0.0
  0
LINE
  5
1D8
330
37
100
AcDbEntity
  8
Sichtbare Kanten(TC_020513_DIN)
100
AcDbLine
 10
113.6565223457214
 20
155.8319871393638
 30
0.0
 11
113.0314529590938
 21
156.1926040931874
 31
0.0
  0
ARC
  5
1D9
330
37
100
AcDbEntity
  8
Sichtbare Kanten(TC_020513_DIN)
100
AcDbCircle
 10
113.7814529590938
 20
156.048533535876
 30
0.0
 40
0.2499999999999989
100
AcDbArc
 50
240.018360631153
 51
60.01836063115301
  0
LINE
  5
1DA
330
37
100
AcDbEntity
  8
Sichtbare Kanten(TC_020513_DIN)
100
AcDbLine
 10
112.9063835724662
 20
156.8420030093112
 30
0.0
 11
113.9063835724662
 21
156.2650799323881
 31
0.0
  0
ARC
  5
1DB
330
37
100
AcDbEntity
  8
Sichtbare Kanten(TC_020513_DIN)
100
AcDbCircle
 10
112.7814529590938
 20
156.625456612799
 30
0.0
 40
0.2500000000000005
100
AcDbArc
 50
60.0183606311474
 51
180.0
  0
ARC
  5
1DC
330
37
100
AcDbEntity
  8
Sichtbare Kanten(TC_020513_DIN)
100
AcDbCircle
 10
107.7314529590938
 20
153.7706486535456
 30
0.0
 40
0.2500000000000002
100
AcDbArc
 50
180.0
 51
0.0
  0
LINE
  5
1DD
330
37
100
AcDbEntity
  8
Sichtbare Kanten(TC_020513_DIN)
100
AcDbLine
 10
107.4814529590938
 20
153.7706486535456
 30
0.0
 11
107.4814529590938
 21
156.0196873820298
 31
0.0
  0
ARC
  5
1DE
330
37
100
AcDbEntity
  8
Sichtbare Kanten(TC_020513_DIN)
100
AcDbCircle
 10
107.7314529590938
 20
156.0196873820298
 30
0.0
 40
0.2500000000000002
100
AcDbArc
 50
0.0
 51
180.0
  0
LINE
  5
1DF
330
37
100
AcDbEntity
  8
Sichtbare Kanten(TC_020513_DIN)
100
AcDbLine
 10
107.9814529590938
 20
156.0196873820298
 30
0.0
 11
107.9814529590938
 21
153.7706486535456
 31
0.0
  0
LINE
  5
1E0
330
37
100
AcDbEntity
  8
Sichtbare Kanten(TC_020513_DIN)
100
AcDbLine
 10
116.7811752584337
 20
154.8951680177877
 30
0.0
 11
110.7814529590938
 21
158.3565462674069
 31
0.0
  0
LINE
  5
1E1
330
37
100
AcDbEntity
  8
Sichtbare Kanten(TC_020513_DIN)
100
AcDbLine
 10
110.7814529590938
 20
158.3565462674069
 30
0.0
 11
104.781730659754
 21
154.8951680177877
 31
0.0
  0
LINE
  5
1E2
330
37
100
AcDbEntity
  8
Sichtbare Kanten(TC_020513_DIN)
100
AcDbLine
 10
110.7814529590938
 20
158.6451680177877
 30
0.0
 11
117.2814529590938
 21
154.8951680177877
 31
0.0
  0
LINE
  5
1E3
330
37
100
AcDbEntity
  8
Sichtbare Kanten(TC_020513_DIN)
100
AcDbLine
 10
117.2814529590938
 20
154.8951680177877
 30
0.0
 11
110.7814529590938
 21
151.1451680177877
 31
0.0
  0
LINE
  5
1E4
330
37
100
AcDbEntity
  8
Sichtbare Kanten(TC_020513_DIN)
100
AcDbLine
 10
104.781730659754
 20
154.8951680177877
 30
0.0
 11
110.7814529590938
 21
151.4337897681685
 31
0.0
  0
LINE
  5
1E5
330
37
100
AcDbEntity
  8
Sichtbare Kanten(TC_020513_DIN)
100
AcDbLine
 10
110.7814529590938
 20
151.4337897681685
 30
0.0
 11
116.7811752584337
 21
154.8951680177877
 31
0.0
  0
LINE
  5
1E6
330
37
100
AcDbEntity
  8
Sichtbare Kanten(TC_020513_DIN)
100
AcDbLine
 10
110.7814529590938
 20
151.1451680177877
 30
0.0
 11
104.2814529590938
 21
154.8951680177877
 31
0.0
  0
LINE
  5
1E7
330
37
100
AcDbEntity
  8
Sichtbare Kanten(TC_020513_DIN)
100
AcDbLine
 10
104.2814529590938
 20
154.8951680177877
 30
0.0
 11
110.7814529590938
 21
158.6451680177877
 31
0.0
  0
ARC
  5
1E8
330
37
100
AcDbEntity
  8
Sichtbare Kanten(TC_020513_DIN)
100
AcDbCircle
 10
110.7814529590938
 20
152.0110332689302
 30
0.0
 40
0.2499999999999978
100
AcDbArc
 50
240.0183614849213
 51
60.0183606311494
  0
LINE
  5
1E9
330
37
100
AcDbEntity
  8
Sichtbare Kanten(TC_020513_DIN)
100
AcDbLine
 10
110.6565223457214
 20
151.794486872418
 30
0.0
 11
108.6065223457214
 21
152.9771791801104
 31
0.0
  0
ARC
  5
1EA
330
37
100
AcDbEntity
  8
Sichtbare Kanten(TC_020513_DIN)
100
AcDbCircle
 10
108.7314529590938
 20
153.1937255766225
 30
0.0
 40
0.2499999999999975
100
AcDbArc
 50
180.0
 51
240.018360631153
  0
LINE
  5
1EB
330
37
100
AcDbEntity
  8
Sichtbare Kanten(TC_020513_DIN)
100
AcDbLine
 10
108.4814529590938
 20
153.1937255766225
 30
0.0
 11
108.4814529590938
 21
156.5966104589529
 31
0.0
  0
LINE
  5
1EC
330
37
100
AcDbEntity
  8
Sichtbare Kanten(TC_020513_DIN)
100
AcDbLine
 10
108.9814529590938
 20
153.3381165577726
 30
0.0
 11
110.9063835724662
 21
152.2275796654423
 31
0.0
  0
LINE
  5
1ED
330
37
100
AcDbEntity
  8
Sichtbare Kanten(TC_020513_DIN)
100
AcDbLine
 10
108.9814529590938
 20
156.5966104589529
 30
0.0
 11
108.9814529590938
 21
153.3381165577726
 31
0.0
  0
ARC
  5
1EE
330
37
100
AcDbEntity
  8
Sichtbare Kanten(TC_020513_DIN)
100
AcDbCircle
 10
108.7314529590938
 20
156.5966104589529
 30
0.0
 40
0.2499999999999996
100
AcDbArc
 50
0.0
 51
180.0
  0
LINE
  5
1EF
330
37
100
AcDbEntity
  8
Sichtbare Kanten(TC_020513_DIN)
100
AcDbLine
 10
109.9839388654209
 20
157.3490066236016
 30
0.0
 11
110.7814529590938
 21
156.2476716928812
 31
0.0
  0
LINE
  5
1F0
330
37
100
AcDbEntity
  8
Sichtbare Kanten(TC_020513_DIN)
100
AcDbLine
 10
110.7814529590938
 20
156.2476716928812
 30
0.0
 11
111.5789670527668
 21
157.3490066236016
 31
0.0
  0
ARC
  5
1F1
330
37
100
AcDbEntity
  8
Sichtbare Kanten(TC_020513_DIN)
100
AcDbCircle
 10
111.7814529590938
 20
157.2023796897221
 30
0.0
 40
0.2500000000000012
100
AcDbArc
 50
0.0
 51
144.0904238229692
  0
LINE
  5
1F2
330
37
100
AcDbEntity
  8
Sichtbare Kanten(TC_020513_DIN)
100
AcDbLine
 10
112.0314529590938
 20
157.2023796897221
 30
0.0
 11
112.0314529590938
 21
152.5879563458533
 31
0.0
  0
ARC
  5
1F3
330
37
100
AcDbEntity
  8
Sichtbare Kanten(TC_020513_DIN)
100
AcDbCircle
 10
111.7814529590938
 20
152.5879563458533
 30
0.0
 40
0.25
100
AcDbArc
 50
180.0
 51
0.0
  0
LINE
  5
1F4
330
37
100
AcDbEntity
  8
Sichtbare Kanten(TC_020513_DIN)
100
AcDbLine
 10
111.5314529590938
 20
152.5879563458533
 30
0.0
 11
111.5314529590938
 21
156.4308878935784
 31
0.0
  0
LINE
  5
1F5
330
37
100
AcDbEntity
  8
Sichtbare Kanten(TC_020513_DIN)
100
AcDbLine
 10
111.5314529590938
 20
156.4308878935784
 30
0.0
 11
110.7814529590938
 21
155.3951680177877
 31
0.0
  0
ARC
  5
1F6
330
37
100
AcDbEntity
  8
Sichtbare Kanten(TC_020513_DIN)
100
AcDbCircle
 10
109.7814529590938
 20
157.2023796897221
 30
0.0
 40
0.2499999999999996
100
AcDbArc
 50
35.90957617703075
 51
180.0
  0
LINE
  5
1F7
330
37
100
AcDbEntity
  8
Sichtbare Kanten(TC_020513_DIN)
100
AcDbLine
 10
109.5314529590938
 20
153.7706486535456
 30
0.0
 11
109.5314529590938
 21
157.2023796897221
 31
0.0
  0
ARC
  5
1F8
330
37
100
AcDbEntity
  8
Sichtbare Kanten(TC_020513_DIN)
100
AcDbCircle
 10
109.7814529590938
 20
153.7706486535456
 30
0.0
 40
0.2499999999999992
100
AcDbArc
 50
180.0
 51
0.0
  0
LINE
  5
1F9
330
37
100
AcDbEntity
  8
Sichtbare Kanten(TC_020513_DIN)
100
AcDbLine
 10
110.0314529590938
 20
156.4308878935784
 30
0.0
 11
110.0314529590938
 21
153.7706486535456
 31
0.0
  0
LINE
  5
1FA
330
37
100
AcDbEntity
  8
Sichtbare Kanten(TC_020513_DIN)
100
AcDbLine
 10
110.7814529590938
 20
155.3951680177877
 30
0.0
 11
110.0314529590938
 21
156.4308878935784
 31
0.0
  0
LINE
  5
1FB
330
37
100
AcDbEntity
  8
Sichtbare Kanten(TC_020513_DIN)
100
AcDbLine
 10
147.6549357346729
 20
150.1959763242853
 30
0.0
 11
148.0233341999308
 21
151.5708581140584
 31
0.0
  0
ARC
  5
1FC
330
37
100
AcDbEntity
  8
Sichtbare Kanten(TC_020513_DIN)
100
AcDbCircle
 10
148.2648156565031
 20
151.5061533527827
 30
0.0
 40
0.2500000000000089
100
AcDbArc
 50
89.99999999999593
 51
164.9999999999975
  0
LINE
  5
1FD
330
37
100
AcDbEntity
  8
Sichtbare Kanten(TC_020513_DIN)
100
AcDbLine
 10
148.2648156565031
 20
151.7561533527828
 30
0.0
 11
157.7314529590938
 21
151.7561533527828
 31
0.0
  0
LINE
  5
1FE
330
37
100
AcDbEntity
  8
Sichtbare Kanten(TC_020513_DIN)
100
AcDbLine
 10
157.7314529590938
 20
161.7561533527827
 30
0.0
 11
155.7648156565031
 21
161.7561533527827
 31
0.0
  0
ARC
  5
1FF
330
37
100
AcDbEntity
  8
Sichtbare Kanten(TC_020513_DIN)
100
AcDbCircle
 10
155.7648156565031
 20
160.7561533527827
 30
0.0
 40
1.000000000000018
100
AcDbArc
 50
90.0
 51
139.9999999999977
  0
LINE
  5
200
330
37
100
AcDbEntity
  8
Sichtbare Kanten(TC_020513_DIN)
100
AcDbLine
 10
154.9987712133841
 20
161.3989409624693
 30
0.0
 11
153.9200455209575
 21
160.1133657430962
 31
0.0
  0
ARC
  5
201
330
37
100
AcDbEntity
  8
Sichtbare Kanten(TC_020513_DIN)
100
AcDbCircle
 10
153.1540010778385
 20
160.7561533527828
 30
0.0
 40
1.000000000000018
100
AcDbArc
 50
270.0
 51
319.9999999999999
  0
LINE
  5
202
330
37
100
AcDbEntity
  8
Sichtbare Kanten(TC_020513_DIN)
100
AcDbLine
 10
153.1540010778385
 20
159.7561533527827
 30
0.0
 11
148.2648156565031
 21
159.7561533527827
 31
0.0
  0
ARC
  5
203
330
37
100
AcDbEntity
  8
Sichtbare Kanten(TC_020513_DIN)
100
AcDbCircle
 10
148.2648156565031
 20
161.2561533527827
 30
0.0
 40
1.499999999999992
100
AcDbArc
 50
226.2398789709817
 51
270.0
  0
LINE
  5
204
330
37
100
AcDbEntity
  8
Sichtbare Kanten(TC_020513_DIN)
100
AcDbLine
 10
146.153666033576
 20
161.5727906553735
 30
0.0
 11
144.8315309268436
 21
161.5727906553735
 31
0.0
  0
LINE
  5
205
330
37
100
AcDbEntity
  8
Sichtbare Kanten(TC_020513_DIN)
100
AcDbLine
 10
142.8996792742655
 20
161.5727906553735
 30
0.0
 11
144.8315309268437
 21
161.5727906553735
 31
0.0
  0
ELLIPSE
  5
206
330
37
100
AcDbEntity
  8
Sichtbare Kanten(TC_020513_DIN)
100
AcDbEllipse
 10
143.8588380092392
 20
144.5650790196188
 30
0.0
 11
1.999999999999997
 21
0.0000000000000009
 31
0.0
210
0.0
220
0.0
230
1.0
 40
0.9063077870366488
 41
4.712388980384689
 42
6.021385919380437
  0
LINE
  5
207
330
37
100
AcDbEntity
  8
Sichtbare Kanten(TC_020513_DIN)
100
AcDbLine
 10
145.7906896618173
 20
144.0959395875992
 30
0.0
 11
147.4192353146193
 21
149.6043107578483
 31
0.0
  0
LINE
  5
208
330
37
100
AcDbEntity
  8
Sichtbare Kanten(TC_020513_DIN)
100
AcDbLine
 10
144.8315309268437
 20
162.9727906553735
 30
0.0
 11
142.8996792742655
 21
162.9727906553735
 31
0.0
  0
LINE
  5
209
330
37
100
AcDbEntity
  8
Sichtbare Kanten(TC_020513_DIN)
100
AcDbLine
 10
144.8315309268436
 20
162.9727906553735
 30
0.0
 11
146.153666033576
 21
162.9727906553735
 31
0.0
  0
LINE
  5
20A
330
37
100
AcDbEntity
  8
Sichtbare Kanten(TC_020513_DIN)
100
AcDbLine
 10
160.5314529590938
 20
164.2386292865778
 30
0.0
 11
160.5314529590938
 21
162.1914096019791
 31
0.0
  0
LINE
  5
20B
330
37
100
AcDbEntity
  8
Sichtbare Kanten(TC_020513_DIN)
100
AcDbLine
 10
159.1314529590938
 20
162.1914096019791
 30
0.0
 11
159.1314529590938
 21
164.2386292865778
 31
0.0
  0
LINE
  5
20C
330
37
100
AcDbEntity
  8
Sichtbare Kanten(TC_020513_DIN)
100
AcDbLine
 10
160.5314529590938
 20
151.7561533527827
 30
0.0
 11
160.5314529590938
 21
147.7873177808805
 31
0.0
  0
LINE
  5
20D
330
37
100
AcDbEntity
  8
Sichtbare Kanten(TC_020513_DIN)
100
AcDbLine
 10
160.5314529590938
 20
147.7873177808805
 30
0.0
 11
160.5314529590938
 21
147.4387458891615
 31
0.0
  0
LINE
  5
20E
330
37
100
AcDbEntity
  8
Sichtbare Kanten(TC_020513_DIN)
100
AcDbLine
 10
160.5314529590938
 20
147.4387458891615
 30
0.0
 11
160.5314529590938
 21
142.6107663330588
 31
0.0
  0
LINE
  5
20F
330
37
100
AcDbEntity
  8
Sichtbare Kanten(TC_020513_DIN)
100
AcDbLine
 10
160.5314529590938
 20
134.3951680177877
 30
0.0
 11
160.5314529590938
 21
142.6107663330588
 31
0.0
  0
LINE
  5
210
330
37
100
AcDbEntity
  8
Sichtbare Kanten(TC_020513_DIN)
100
AcDbLine
 10
160.5314529590938
 20
134.3951680177877
 30
0.0
 11
160.5314529590938
 21
134.2575131027803
 31
0.0
  0
LINE
  5
211
330
37
100
AcDbEntity
  8
Sichtbare Kanten(TC_020513_DIN)
100
AcDbLine
 10
160.5314529590938
 20
164.2386292865778
 30
0.0
 11
160.5314529590938
 21
169.3951680177877
 31
0.0
  0
LINE
  5
212
330
37
100
AcDbEntity
  8
Sichtbare Kanten(TC_020513_DIN)
100
AcDbLine
 10
159.1314529590938
 20
169.3951680177877
 30
0.0
 11
159.1314529590938
 21
164.2386292865778
 31
0.0
  0
LINE
  5
213
330
37
100
AcDbEntity
  8
Sichtbare Kanten(TC_020513_DIN)
100
AcDbLine
 10
159.1314529590938
 20
134.2575131027803
 30
0.0
 11
159.1314529590938
 21
134.3951680177877
 31
0.0
  0
LINE
  5
214
330
37
100
AcDbEntity
  8
Sichtbare Kanten(TC_020513_DIN)
100
AcDbLine
 10
159.1314529590938
 20
142.6107663330588
 30
0.0
 11
159.1314529590938
 21
134.3951680177877
 31
0.0
  0
LINE
  5
215
330
37
100
AcDbEntity
  8
Sichtbare Kanten(TC_020513_DIN)
100
AcDbLine
 10
159.1314529590938
 20
142.6107663330588
 30
0.0
 11
159.1314529590938
 21
147.4387458891615
 31
0.0
  0
LINE
  5
216
330
37
100
AcDbEntity
  8
Sichtbare Kanten(TC_020513_DIN)
100
AcDbLine
 10
159.1314529590938
 20
147.4387458891615
 30
0.0
 11
159.1314529590938
 21
147.7873177808805
 31
0.0
  0
LINE
  5
217
330
37
100
AcDbEntity
  8
Sichtbare Kanten(TC_020513_DIN)
100
AcDbLine
 10
159.1314529590938
 20
147.7873177808805
 30
0.0
 11
159.1314529590938
 21
151.7561533527828
 31
0.0
  0
LINE
  5
218
330
37
100
AcDbEntity
  8
Sichtbare Kanten(TC_020513_DIN)
100
AcDbLine
 10
160.5314529590938
 20
134.3951680177877
 30
0.0
 11
159.1314529590938
 21
134.3951680177877
 31
0.0
  0
LINE
  5
219
330
37
100
AcDbEntity
  8
Sichtbare Kanten(TC_020513_DIN)
100
AcDbLine
 10
160.5314529590938
 20
169.3951680177877
 30
0.0
 11
159.1314529590938
 21
169.3951680177877
 31
0.0
  0
LINE
  5
21A
330
37
100
AcDbEntity
  8
Sichtbare Kanten(TC_020513_DIN)
100
AcDbLine
 10
160.6314529590938
 20
134.1575131027803
 30
0.0
 11
160.8654415305096
 21
134.1575131027803
 31
0.0
  0
LINE
  5
21B
330
37
100
AcDbEntity
  8
Sichtbare Kanten(TC_020513_DIN)
100
AcDbLine
 10
162.5314529590938
 20
134.1575131027803
 30
0.0
 11
163.0691078741013
 21
134.1575131027803
 31
0.0
  0
LINE
  5
21C
330
37
100
AcDbEntity
  8
Sichtbare Kanten(TC_020513_DIN)
100
AcDbLine
 10
163.5691078741013
 20
134.1575131027803
 30
0.0
 11
163.0691078741013
 21
134.1575131027803
 31
0.0
  0
LINE
  5
21D
330
37
100
AcDbEntity
  8
Sichtbare Kanten(TC_020513_DIN)
100
AcDbLine
 10
163.0691078741013
 20
132.7575131027803
 30
0.0
 11
162.5314529590938
 21
132.7575131027803
 31
0.0
  0
LINE
  5
21E
330
37
100
AcDbEntity
  8
Sichtbare Kanten(TC_020513_DIN)
100
AcDbLine
 10
163.0691078741013
 20
132.7575131027803
 30
0.0
 11
163.5691078741013
 21
132.7575131027803
 31
0.0
  0
LINE
  5
21F
330
37
100
AcDbEntity
  8
Sichtbare Kanten(TC_020513_DIN)
100
AcDbLine
 10
163.5691078741013
 20
134.1575131027803
 30
0.0
 11
163.5691078741013
 21
132.7575131027803
 31
0.0
  0
LINE
  5
220
330
37
100
AcDbEntity
  8
Sichtbare Kanten(TC_020513_DIN)
100
AcDbLine
 10
147.4192353146193
 20
149.0126451914114
 30
0.0
 11
145.7906896618173
 21
143.5042740211622
 31
0.0
  0
ELLIPSE
  5
221
330
37
100
AcDbEntity
  8
Sichtbare Kanten(TC_020513_DIN)
100
AcDbEllipse
 10
143.8588380092392
 20
143.9734134531818
 30
0.0
 11
2.0
 21
0.0000000000000083
 31
0.0
210
0.0
220
0.0
230
1.0
 40
0.9063077870366488
 41
4.712388980384677
 42
6.021385919380432
  0
ARC
  5
222
330
37
100
AcDbEntity
  8
Sichtbare Kanten(TC_020513_DIN)
100
AcDbCircle
 10
73.29809026168459
 20
161.2561533527827
 30
0.0
 40
1.500000000000007
100
AcDbArc
 50
270.0
 51
313.7601210290164
  0
LINE
  5
223
330
37
100
AcDbEntity
  8
Sichtbare Kanten(TC_020513_DIN)
100
AcDbLine
 10
68.40890484034914
 20
159.7561533527827
 30
0.0
 11
73.29809026168459
 21
159.7561533527827
 31
0.0
  0
ARC
  5
224
330
37
100
AcDbEntity
  8
Sichtbare Kanten(TC_020513_DIN)
100
AcDbCircle
 10
68.40890484034914
 20
160.7561533527827
 30
0.0
 40
1.000000000000002
100
AcDbArc
 50
220.0000000000007
 51
270.0000000000005
  0
LINE
  5
225
330
37
100
AcDbEntity
  8
Sichtbare Kanten(TC_020513_DIN)
100
AcDbLine
 10
66.56413470480356
 20
161.3989409624693
 30
0.0
 11
67.64286039723017
 21
160.1133657430962
 31
0.0
  0
ARC
  5
226
330
37
100
AcDbEntity
  8
Sichtbare Kanten(TC_020513_DIN)
100
AcDbCircle
 10
65.79809026168458
 20
160.7561533527827
 30
0.0
 40
1.000000000000016
100
AcDbArc
 50
40.00000000000006
 51
89.99999999999948
  0
LINE
  5
227
330
37
100
AcDbEntity
  8
Sichtbare Kanten(TC_020513_DIN)
100
AcDbLine
 10
63.83145295909385
 20
161.7561533527827
 30
0.0
 11
65.79809026168459
 21
161.7561533527827
 31
0.0
  0
LINE
  5
228
330
37
100
AcDbEntity
  8
Sichtbare Kanten(TC_020513_DIN)
100
AcDbLine
 10
73.29809026168459
 20
151.7561533527827
 30
0.0
 11
63.83145295909385
 21
151.7561533527827
 31
0.0
  0
ARC
  5
229
330
37
100
AcDbEntity
  8
Sichtbare Kanten(TC_020513_DIN)
100
AcDbCircle
 10
73.29809026168459
 20
151.5061533527827
 30
0.0
 40
0.2500000000000089
100
AcDbArc
 50
15.0000000000025
 51
90.0
  0
LINE
  5
22A
330
37
100
AcDbEntity
  8
Sichtbare Kanten(TC_020513_DIN)
100
AcDbLine
 10
73.90797018351481
 20
150.1959763242853
 30
0.0
 11
73.53957171825687
 21
151.5708581140584
 31
0.0
  0
LINE
  5
22B
330
37
100
AcDbEntity
  8
Sichtbare Kanten(TC_020513_DIN)
100
AcDbLine
 10
61.03145295909385
 20
134.3951680177877
 30
0.0
 11
61.03145295909385
 21
134.2575131027803
 31
0.0
  0
LINE
  5
22C
330
37
100
AcDbEntity
  8
Sichtbare Kanten(TC_020513_DIN)
100
AcDbLine
 10
61.03145295909385
 20
134.3951680177877
 30
0.0
 11
61.03145295909385
 21
142.6107663330588
 31
0.0
  0
LINE
  5
22D
330
37
100
AcDbEntity
  8
Sichtbare Kanten(TC_020513_DIN)
100
AcDbLine
 10
61.03145295909385
 20
147.4387458891615
 30
0.0
 11
61.03145295909385
 21
142.6107663330588
 31
0.0
  0
LINE
  5
22E
330
37
100
AcDbEntity
  8
Sichtbare Kanten(TC_020513_DIN)
100
AcDbLine
 10
61.03145295909385
 20
147.7873177808805
 30
0.0
 11
61.03145295909385
 21
147.4387458891615
 31
0.0
  0
LINE
  5
22F
330
37
100
AcDbEntity
  8
Sichtbare Kanten(TC_020513_DIN)
100
AcDbLine
 10
61.03145295909385
 20
151.7561533527827
 30
0.0
 11
61.03145295909385
 21
147.7873177808805
 31
0.0
  0
LINE
  5
230
330
37
100
AcDbEntity
  8
Sichtbare Kanten(TC_020513_DIN)
100
AcDbLine
 10
61.03145295909385
 20
164.2386292865778
 30
0.0
 11
61.03145295909385
 21
162.1914096019791
 31
0.0
  0
LINE
  5
231
330
37
100
AcDbEntity
  8
Sichtbare Kanten(TC_020513_DIN)
100
AcDbLine
 10
61.03145295909385
 20
164.2386292865778
 30
0.0
 11
61.03145295909385
 21
169.3951680177877
 31
0.0
  0
LINE
  5
232
330
37
100
AcDbEntity
  8
Sichtbare Kanten(TC_020513_DIN)
100
AcDbLine
 10
62.43145295909386
 20
169.3951680177877
 30
0.0
 11
62.43145295909386
 21
164.2386292865778
 31
0.0
  0
LINE
  5
233
330
37
100
AcDbEntity
  8
Sichtbare Kanten(TC_020513_DIN)
100
AcDbLine
 10
62.43145295909386
 20
162.1914096019791
 30
0.0
 11
62.43145295909386
 21
164.2386292865778
 31
0.0
  0
LINE
  5
234
330
37
100
AcDbEntity
  8
Sichtbare Kanten(TC_020513_DIN)
100
AcDbLine
 10
62.43145295909386
 20
147.7873177808805
 30
0.0
 11
62.43145295909386
 21
151.7561533527827
 31
0.0
  0
LINE
  5
235
330
37
100
AcDbEntity
  8
Sichtbare Kanten(TC_020513_DIN)
100
AcDbLine
 10
62.43145295909386
 20
147.4387458891615
 30
0.0
 11
62.43145295909386
 21
147.7873177808805
 31
0.0
  0
LINE
  5
236
330
37
100
AcDbEntity
  8
Sichtbare Kanten(TC_020513_DIN)
100
AcDbLine
 10
62.43145295909386
 20
142.6107663330588
 30
0.0
 11
62.43145295909386
 21
147.4387458891615
 31
0.0
  0
LINE
  5
237
330
37
100
AcDbEntity
  8
Sichtbare Kanten(TC_020513_DIN)
100
AcDbLine
 10
62.43145295909386
 20
142.6107663330588
 30
0.0
 11
62.43145295909386
 21
134.3951680177877
 31
0.0
  0
LINE
  5
238
330
37
100
AcDbEntity
  8
Sichtbare Kanten(TC_020513_DIN)
100
AcDbLine
 10
62.43145295909386
 20
134.2575131027803
 30
0.0
 11
62.43145295909386
 21
134.3951680177877
 31
0.0
  0
LINE
  5
239
330
37
100
AcDbEntity
  8
Sichtbare Kanten(TC_020513_DIN)
100
AcDbLine
 10
61.03145295909385
 20
134.3951680177877
 30
0.0
 11
62.43145295909386
 21
134.3951680177877
 31
0.0
  0
LINE
  5
23A
330
37
100
AcDbEntity
  8
Sichtbare Kanten(TC_020513_DIN)
100
AcDbLine
 10
61.03145295909385
 20
169.3951680177877
 30
0.0
 11
62.43145295909386
 21
169.3951680177877
 31
0.0
  0
LINE
  5
23B
330
37
100
AcDbEntity
  8
Sichtbare Kanten(TC_020513_DIN)
100
AcDbLine
 10
76.73137499134404
 20
162.9727906553735
 30
0.0
 11
78.66322664392217
 21
162.9727906553735
 31
0.0
  0
LINE
  5
23C
330
37
100
AcDbEntity
  8
Sichtbare Kanten(TC_020513_DIN)
100
AcDbLine
 10
78.66322664392217
 20
161.5727906553735
 30
0.0
 11
76.73137499134404
 21
161.5727906553735
 31
0.0
  0
LINE
  5
23D
330
37
100
AcDbEntity
  8
Sichtbare Kanten(TC_020513_DIN)
100
AcDbLine
 10
75.40923988461166
 20
161.5727906553735
 30
0.0
 11
76.73137499134405
 21
161.5727906553735
 31
0.0
  0
LINE
  5
23E
330
37
100
AcDbEntity
  8
Sichtbare Kanten(TC_020513_DIN)
100
AcDbLine
 10
76.73137499134405
 20
162.9727906553735
 30
0.0
 11
75.40923988461165
 21
162.9727906553735
 31
0.0
  0
LINE
  5
23F
330
37
100
AcDbEntity
  8
Sichtbare Kanten(TC_020513_DIN)
100
AcDbLine
 10
60.93145295909384
 20
134.1575131027803
 30
0.0
 11
60.69746438767804
 21
134.1575131027803
 31
0.0
  0
LINE
  5
240
330
37
100
AcDbEntity
  8
Sichtbare Kanten(TC_020513_DIN)
100
AcDbLine
 10
59.03145295909386
 20
134.1575131027803
 30
0.0
 11
58.49379804408641
 21
134.1575131027803
 31
0.0
  0
LINE
  5
241
330
37
100
AcDbEntity
  8
Sichtbare Kanten(TC_020513_DIN)
100
AcDbLine
 10
58.49379804408641
 20
132.7575131027803
 30
0.0
 11
59.03145295909386
 21
132.7575131027803
 31
0.0
  0
LINE
  5
242
330
37
100
AcDbEntity
  8
Sichtbare Kanten(TC_020513_DIN)
100
AcDbLine
 10
58.49379804408641
 20
132.7575131027803
 30
0.0
 11
57.99379804408641
 21
132.7575131027803
 31
0.0
  0
LINE
  5
243
330
37
100
AcDbEntity
  8
Sichtbare Kanten(TC_020513_DIN)
100
AcDbLine
 10
57.99379804408641
 20
134.1575131027803
 30
0.0
 11
58.49379804408641
 21
134.1575131027803
 31
0.0
  0
LINE
  5
244
330
37
100
AcDbEntity
  8
Sichtbare Kanten(TC_020513_DIN)
100
AcDbLine
 10
57.99379804408641
 20
134.1575131027803
 30
0.0
 11
57.99379804408641
 21
132.7575131027803
 31
0.0
  0
ELLIPSE
  5
245
330
37
100
AcDbEntity
  8
Sichtbare Kanten(TC_020513_DIN)
100
AcDbEllipse
 10
77.70406790894847
 20
143.9734134531818
 30
0.0
 11
-2.000000000000001
 21
0.0000000000000154
 31
0.0
210
0.0
220
0.0
230
1.0
 40
0.9063077870366488
 41
0.2617993877991589
 42
1.570796326794903
  0
ELLIPSE
  5
246
330
37
100
AcDbEntity
  8
Sichtbare Kanten(TC_020513_DIN)
100
AcDbEllipse
 10
77.70406790894847
 20
144.5650790196188
 30
0.0
 11
-1.999999999999999
 21
0.0000000000000012
 31
0.0
210
0.0
220
0.0
230
1.0
 40
0.9063077870366489
 41
0.2617993877991509
 42
1.570796326794897
  0
LINE
  5
247
330
37
100
AcDbEntity
  8
Sichtbare Kanten(TC_020513_DIN)
100
AcDbLine
 10
74.14367060356835
 20
149.0126451914114
 30
0.0
 11
75.77221625637034
 21
143.5042740211622
 31
0.0
  0
LINE
  5
248
330
37
100
AcDbEntity
  8
Sichtbare Kanten(TC_020513_DIN)
100
AcDbLine
 10
75.77221625637034
 20
144.0959395875992
 30
0.0
 11
74.14367060356835
 21
149.6043107578483
 31
0.0
  0
LINE
  5
249
330
37
100
AcDbEntity
  8
Sichtbare Kanten(TC_020513_DIN)
100
AcDbLine
 10
142.8996792742655
 20
161.5727906553735
 30
0.0
 11
78.66322664392217
 21
161.5727906553735
 31
0.0
  0
LINE
  5
24A
330
37
100
AcDbEntity
  8
Sichtbare Kanten(TC_020513_DIN)
100
AcDbLine
 10
142.8996792742655
 20
162.9727906553735
 30
0.0
 11
78.66322664392217
 21
162.9727906553735
 31
0.0
  0
LINE
  5
24B
330
37
100
AcDbEntity
  8
Sichtbare Kanten(TC_020513_DIN)
100
AcDbLine
 10
77.70406790894847
 20
142.7524634455455
 30
0.0
 11
143.8588380092392
 21
142.7524634455455
 31
0.0
  0
LINE
  5
24C
330
37
100
AcDbEntity
  8
Sichtbare Kanten(TC_020513_DIN)
100
AcDbLine
 10
143.8588380092392
 20
142.1607978791086
 30
0.0
 11
77.70406790894847
 21
142.1607978791085
 31
0.0
  0
POLYLINE
  5
24D
330
37
100
AcDbEntity
  8
Sichtbare Kanten(TC_020513_DIN)
100
AcDb2dPolyline
 66
     1
 10
0.0
 20
0.0
 30
0.0
 70
   128
  0
VERTEX
  5
24E
330
24D
100
AcDbEntity
  8
Sichtbare Kanten(TC_020513_DIN)
100
AcDbVertex
100
AcDb2dVertex
 10
74.14366990855675
 20
149.012645077152
 30
0.0
  0
VERTEX
  5
24F
330
24D
100
AcDbEntity
  8
Sichtbare Kanten(TC_020513_DIN)
100
AcDbVertex
100
AcDb2dVertex
 10
74.13384229472618
 20
149.0590094441602
 30
0.0
  0
VERTEX
  5
251
330
24D
100
AcDbEntity
  8
Sichtbare Kanten(TC_020513_DIN)
100
AcDbVertex
100
AcDb2dVertex
 10
74.1240170650814
 20
149.1057305449674
 30
0.0
  0
VERTEX
  5
252
330
24D
100
AcDbEntity
  8
Sichtbare Kanten(TC_020513_DIN)
100
AcDbVertex
100
AcDb2dVertex
 10
74.11419660380821
 20
149.1527967566678
 30
0.0
  0
VERTEX
  5
253
330
24D
100
AcDbEntity
  8
Sichtbare Kanten(TC_020513_DIN)
100
AcDbVertex
100
AcDb2dVertex
 10
74.10437852672081
 20
149.2001958603093
 30
0.0
  0
VERTEX
  5
254
330
24D
100
AcDbEntity
  8
Sichtbare Kanten(TC_020513_DIN)
100
AcDbVertex
100
AcDb2dVertex
 10
74.09456044963341
 20
149.2479162329862
 30
0.0
  0
VERTEX
  5
255
330
24D
100
AcDbEntity
  8
Sichtbare Kanten(TC_020513_DIN)
100
AcDbVertex
100
AcDb2dVertex
 10
74.08474475673179
 20
149.2959459537694
 30
0.0
  0
VERTEX
  5
256
330
24D
100
AcDbEntity
  8
Sichtbare Kanten(TC_020513_DIN)
100
AcDbVertex
100
AcDb2dVertex
 10
74.07492906383018
 20
149.3442725056836
 30
0.0
  0
VERTEX
  5
257
330
24D
100
AcDbEntity
  8
Sichtbare Kanten(TC_020513_DIN)
100
AcDbVertex
100
AcDb2dVertex
 10
74.06511337092857
 20
149.3928845638463
 30
0.0
  0
VERTEX
  5
258
330
24D
100
AcDbEntity
  8
Sichtbare Kanten(TC_020513_DIN)
100
AcDbVertex
100
AcDb2dVertex
 10
74.05529290965538
 20
149.4417699093053
 30
0.0
  0
VERTEX
  5
259
330
24D
100
AcDbEntity
  8
Sichtbare Kanten(TC_020513_DIN)
100
AcDbVertex
100
AcDb2dVertex
 10
74.04547244838219
 20
149.4909163231084
 30
0.0
  0
VERTEX
  5
25A
330
24D
100
AcDbEntity
  8
Sichtbare Kanten(TC_020513_DIN)
100
AcDbVertex
100
AcDb2dVertex
 10
74.0356496029232
 20
149.5403118843267
 30
0.0
  0
VERTEX
  5
25B
330
24D
100
AcDbEntity
  8
Sichtbare Kanten(TC_020513_DIN)
100
AcDbVertex
100
AcDb2dVertex
 10
74.02581960490684
 20
149.5899452680776
 30
0.0
  0
VERTEX
  5
25C
330
24D
100
AcDbEntity
  8
Sichtbare Kanten(TC_020513_DIN)
100
AcDbVertex
100
AcDb2dVertex
 10
74.01599199107628
 20
149.6397795194814
 30
0.0
  0
VERTEX
  5
25D
330
24D
100
AcDbEntity
  8
Sichtbare Kanten(TC_020513_DIN)
100
AcDbVertex
100
AcDb2dVertex
 10
74.0061667614315
 20
149.6897764915655
 30
0.0
  0
VERTEX
  5
25E
330
24D
100
AcDbEntity
  8
Sichtbare Kanten(TC_020513_DIN)
100
AcDbVertex
100
AcDb2dVertex
 10
73.99634630015831
 20
149.7399248594472
 30
0.0
  0
VERTEX
  5
25F
330
24D
100
AcDbEntity
  8
Sichtbare Kanten(TC_020513_DIN)
100
AcDbVertex
100
AcDb2dVertex
 10
73.98652822307091
 20
149.7902115101049
 30
0.0
  0
VERTEX
  5
260
330
24D
100
AcDbEntity
  8
Sichtbare Kanten(TC_020513_DIN)
100
AcDbVertex
100
AcDb2dVertex
 10
73.97671253016929
 20
149.8406233305166
 30
0.0
  0
VERTEX
  5
261
330
24D
100
AcDbEntity
  8
Sichtbare Kanten(TC_020513_DIN)
100
AcDbVertex
100
AcDb2dVertex
 10
73.96689445308189
 20
149.8911489957998
 30
0.0
  0
VERTEX
  5
262
330
24D
100
AcDbEntity
  8
Sichtbare Kanten(TC_020513_DIN)
100
AcDbVertex
100
AcDb2dVertex
 10
73.95707876018028
 20
149.9417753929327
 30
0.0
  0
VERTEX
  5
263
330
24D
100
AcDbEntity
  8
Sichtbare Kanten(TC_020513_DIN)
100
AcDbVertex
100
AcDb2dVertex
 10
73.94726306727867
 20
149.9924894088933
 30
0.0
  0
VERTEX
  5
264
330
24D
100
AcDbEntity
  8
Sichtbare Kanten(TC_020513_DIN)
100
AcDbVertex
100
AcDb2dVertex
 10
73.93744260600548
 20
150.0432791227529
 30
0.0
  0
VERTEX
  5
265
330
24D
100
AcDbEntity
  8
Sichtbare Kanten(TC_020513_DIN)
100
AcDbVertex
100
AcDb2dVertex
 10
73.92762214473228
 20
150.0941320175359
 30
0.0
  0
VERTEX
  5
266
330
24D
100
AcDbEntity
  8
Sichtbare Kanten(TC_020513_DIN)
100
AcDbVertex
100
AcDb2dVertex
 10
73.9177992992733
 20
150.1450349802206
 30
0.0
  0
VERTEX
  5
267
330
24D
100
AcDbEntity
  8
Sichtbare Kanten(TC_020513_DIN)
100
AcDbVertex
100
AcDb2dVertex
 10
73.90796930125694
 20
150.1959760898778
 30
0.0
  0
SEQEND
  5
250
330
24D
100
AcDbEntity
  8
Sichtbare Kanten(TC_020513_DIN)
  0
LINE
  5
268
330
37
100
AcDbEntity
  8
Sichtbare Kanten(TC_020513_DIN)
100
AcDbLine
 10
74.14367060356835
 20
149.3439762802956
 30
0.0
 11
74.14367060356835
 21
149.0126451914114
 31
0.0
  0
LINE
  5
269
330
37
100
AcDbEntity
  8
Sichtbare Kanten(TC_020513_DIN)
100
AcDbLine
 10
74.14367060356835
 20
149.6043107578483
 30
0.0
 11
74.14367060356835
 21
149.3439762802956
 31
0.0
  0
POLYLINE
  5
26A
330
37
100
AcDbEntity
  8
Sichtbare Kanten(TC_020513_DIN)
100
AcDb2dPolyline
 66
     1
 10
0.0
 20
0.0
 30
0.0
 70
   128
  0
VERTEX
  5
26B
330
26A
100
AcDbEntity
  8
Sichtbare Kanten(TC_020513_DIN)
100
AcDbVertex
100
AcDb2dVertex
 10
73.90796930125694
 20
150.1959760898778
 30
0.0
  0
VERTEX
  5
26C
330
26A
100
AcDbEntity
  8
Sichtbare Kanten(TC_020513_DIN)
100
AcDbVertex
100
AcDb2dVertex
 10
73.9177992992733
 20
150.1705058330724
 30
0.0
  0
VERTEX
  5
26E
330
26A
100
AcDbEntity
  8
Sichtbare Kanten(TC_020513_DIN)
100
AcDbVertex
100
AcDb2dVertex
 10
73.92762214473228
 20
150.1450540537069
 30
0.0
  0
VERTEX
  5
26F
330
26A
100
AcDbEntity
  8
Sichtbare Kanten(TC_020513_DIN)
100
AcDbVertex
100
AcDb2dVertex
 10
73.93744260600548
 20
150.1196279043386
 30
0.0
  0
VERTEX
  5
270
330
26A
100
AcDbEntity
  8
Sichtbare Kanten(TC_020513_DIN)
100
AcDbVertex
100
AcDb2dVertex
 10
73.94726306727867
 20
150.0942327493856
 30
0.0
  0
VERTEX
  5
271
330
26A
100
AcDbEntity
  8
Sichtbare Kanten(TC_020513_DIN)
100
AcDbVertex
100
AcDb2dVertex
 10
73.95707876018028
 20
150.0688757414052
 30
0.0
  0
VERTEX
  5
272
330
26A
100
AcDbEntity
  8
Sichtbare Kanten(TC_020513_DIN)
100
AcDbVertex
100
AcDb2dVertex
 10
73.96689445308189
 20
150.043562840862
 30
0.0
  0
VERTEX
  5
273
330
26A
100
AcDbEntity
  8
Sichtbare Kanten(TC_020513_DIN)
100
AcDbVertex
100
AcDb2dVertex
 10
73.97671253016929
 20
150.0183000082204
 30
0.0
  0
VERTEX
  5
274
330
26A
100
AcDbEntity
  8
Sichtbare Kanten(TC_020513_DIN)
100
AcDbVertex
100
AcDb2dVertex
 10
73.98652822307091
 20
149.9930937999914
 30
0.0
  0
VERTEX
  5
275
330
26A
100
AcDbEntity
  8
Sichtbare Kanten(TC_020513_DIN)
100
AcDbVertex
100
AcDb2dVertex
 10
73.99634630015831
 20
149.9679507726858
 30
0.0
  0
VERTEX
  5
276
330
26A
100
AcDbEntity
  8
Sichtbare Kanten(TC_020513_DIN)
100
AcDbVertex
100
AcDb2dVertex
 10
74.0061667614315
 20
149.9428762907216
 30
0.0
  0
VERTEX
  5
277
330
26A
100
AcDbEntity
  8
Sichtbare Kanten(TC_020513_DIN)
100
AcDbVertex
100
AcDb2dVertex
 10
74.01599199107628
 20
149.9178781027028
 30
0.0
  0
VERTEX
  5
278
330
26A
100
AcDbEntity
  8
Sichtbare Kanten(TC_020513_DIN)
100
AcDbVertex
100
AcDb2dVertex
 10
74.02581960490684
 20
149.8929609770009
 30
0.0
  0
VERTEX
  5
279
330
26A
100
AcDbEntity
  8
Sichtbare Kanten(TC_020513_DIN)
100
AcDbVertex
100
AcDb2dVertex
 10
74.0356496029232
 20
149.8681439871023
 30
0.0
  0
VERTEX
  5
27A
330
26A
100
AcDbEntity
  8
Sichtbare Kanten(TC_020513_DIN)
100
AcDbVertex
100
AcDb2dVertex
 10
74.04547244838219
 20
149.8434462064931
 30
0.0
  0
VERTEX
  5
27B
330
26A
100
AcDbEntity
  8
Sichtbare Kanten(TC_020513_DIN)
100
AcDbVertex
100
AcDb2dVertex
 10
74.05529290965538
 20
149.8188729995916
 30
0.0
  0
VERTEX
  5
27C
330
26A
100
AcDbEntity
  8
Sichtbare Kanten(TC_020513_DIN)
100
AcDbVertex
100
AcDb2dVertex
 10
74.06511337092857
 20
149.7944303268621
 30
0.0
  0
VERTEX
  5
27D
330
26A
100
AcDbEntity
  8
Sichtbare Kanten(TC_020513_DIN)
100
AcDbVertex
100
AcDb2dVertex
 10
74.07492906383018
 20
149.7701241487691
 30
0.0
  0
VERTEX
  5
27E
330
26A
100
AcDbEntity
  8
Sichtbare Kanten(TC_020513_DIN)
100
AcDbVertex
100
AcDb2dVertex
 10
74.08474475673179
 20
149.7459610218236
 30
0.0
  0
VERTEX
  5
27F
330
26A
100
AcDbEntity
  8
Sichtbare Kanten(TC_020513_DIN)
100
AcDbVertex
100
AcDb2dVertex
 10
74.09456044963341
 20
149.7219463104436
 30
0.0
  0
VERTEX
  5
280
330
26A
100
AcDbEntity
  8
Sichtbare Kanten(TC_020513_DIN)
100
AcDbVertex
100
AcDb2dVertex
 10
74.10437852672081
 20
149.6980859750936
 30
0.0
  0
VERTEX
  5
281
330
26A
100
AcDbEntity
  8
Sichtbare Kanten(TC_020513_DIN)
100
AcDbVertex
100
AcDb2dVertex
 10
74.11419660380821
 20
149.6743865722845
 30
0.0
  0
VERTEX
  5
282
330
26A
100
AcDbEntity
  8
Sichtbare Kanten(TC_020513_DIN)
100
AcDbVertex
100
AcDb2dVertex
 10
74.1240170650814
 20
149.6508534664342
 30
0.0
  0
VERTEX
  5
283
330
26A
100
AcDbEntity
  8
Sichtbare Kanten(TC_020513_DIN)
100
AcDbVertex
100
AcDb2dVertex
 10
74.13384229472618
 20
149.6274926180074
 30
0.0
  0
VERTEX
  5
284
330
26A
100
AcDbEntity
  8
Sichtbare Kanten(TC_020513_DIN)
100
AcDbVertex
100
AcDb2dVertex
 10
74.14366990855675
 20
149.6043105835149
 30
0.0
  0
SEQEND
  5
26D
330
26A
100
AcDbEntity
  8
Sichtbare Kanten(TC_020513_DIN)
  0
ARC
  5
285
330
37
100
AcDbEntity
  8
Sichtbare Kanten(TC_020513_DIN)
100
AcDbCircle
 10
60.93145295909384
 20
134.2575131027803
 30
0.0
 40
0.1000000000000045
100
AcDbArc
 50
270.0
 51
0.0
  0
ARC
  5
286
330
37
100
AcDbEntity
  8
Sichtbare Kanten(TC_020513_DIN)
100
AcDbCircle
 10
60.93145295909382
 20
134.2575131027803
 30
0.0
 40
1.50000000000003
100
AcDbArc
 50
333.0858507981409
 51
0.0
  0
LINE
  5
287
330
37
100
AcDbEntity
  8
Sichtbare Kanten(TC_020513_DIN)
100
AcDbLine
 10
61.03145295909385
 20
151.7561533527827
 30
0.0
 11
61.03145295909385
 21
162.1914096019791
 31
0.0
  0
POLYLINE
  5
288
330
37
100
AcDbEntity
  8
Sichtbare Kanten(TC_020513_DIN)
100
AcDb2dPolyline
 66
     1
 10
0.0
 20
0.0
 30
0.0
 70
   128
  0
VERTEX
  5
289
330
288
100
AcDbEntity
  8
Sichtbare Kanten(TC_020513_DIN)
100
AcDbVertex
100
AcDb2dVertex
 10
61.07346803477745
 20
161.9771482462118
 30
0.0
  0
VERTEX
  5
28A
330
288
100
AcDbEntity
  8
Sichtbare Kanten(TC_020513_DIN)
100
AcDbVertex
100
AcDb2dVertex
 10
61.07004911235313
 20
161.9860770219991
 30
0.0
  0
VERTEX
  5
28C
330
288
100
AcDbEntity
  8
Sichtbare Kanten(TC_020513_DIN)
100
AcDbVertex
100
AcDb2dVertex
 10
61.06677324107628
 20
161.9950046056936
 30
0.0
  0
VERTEX
  5
28D
330
288
100
AcDbEntity
  8
Sichtbare Kanten(TC_020513_DIN)
100
AcDbVertex
100
AcDb2dVertex
 10
61.06364042094688
 20
162.0039321893881
 30
0.0
  0
VERTEX
  5
28E
330
288
100
AcDbEntity
  8
Sichtbare Kanten(TC_020513_DIN)
100
AcDbVertex
100
AcDb2dVertex
 10
61.06065542033653
 20
162.0128597730825
 30
0.0
  0
VERTEX
  5
28F
330
288
100
AcDbEntity
  8
Sichtbare Kanten(TC_020513_DIN)
100
AcDbVertex
100
AcDb2dVertex
 10
61.05780870250206
 20
162.0217861646841
 30
0.0
  0
VERTEX
  5
290
330
288
100
AcDbEntity
  8
Sichtbare Kanten(TC_020513_DIN)
100
AcDbVertex
100
AcDb2dVertex
 10
61.05511457255821
 20
162.0307137483785
 30
0.0
  0
VERTEX
  5
291
330
288
100
AcDbEntity
  8
Sichtbare Kanten(TC_020513_DIN)
100
AcDbVertex
100
AcDb2dVertex
 10
61.05255872539024
 20
162.0396401399801
 30
0.0
  0
VERTEX
  5
292
330
288
100
AcDbEntity
  8
Sichtbare Kanten(TC_020513_DIN)
100
AcDbVertex
100
AcDb2dVertex
 10
61.0501554661129
 20
162.0485677236746
 30
0.0
  0
VERTEX
  5
293
330
288
100
AcDbEntity
  8
Sichtbare Kanten(TC_020513_DIN)
100
AcDbVertex
100
AcDb2dVertex
 10
61.04789048961143
 20
162.0574941152761
 30
0.0
  0
VERTEX
  5
294
330
288
100
AcDbEntity
  8
Sichtbare Kanten(TC_020513_DIN)
100
AcDbVertex
100
AcDb2dVertex
 10
61.04577333262901
 20
162.0664216989706
 30
0.0
  0
VERTEX
  5
295
330
288
100
AcDbEntity
  8
Sichtbare Kanten(TC_020513_DIN)
100
AcDbVertex
100
AcDb2dVertex
 10
61.04380399516563
 20
162.0753504747579
 30
0.0
  0
VERTEX
  5
296
330
288
100
AcDbEntity
  8
Sichtbare Kanten(TC_020513_DIN)
100
AcDbVertex
100
AcDb2dVertex
 10
61.04197770884971
 20
162.0842792505453
 30
0.0
  0
VERTEX
  5
297
330
288
100
AcDbEntity
  8
Sichtbare Kanten(TC_020513_DIN)
100
AcDbVertex
100
AcDb2dVertex
 10
61.04029447368126
 20
162.0932068342398
 30
0.0
  0
VERTEX
  5
298
330
288
100
AcDbEntity
  8
Sichtbare Kanten(TC_020513_DIN)
100
AcDbVertex
100
AcDb2dVertex
 10
61.03876382640343
 20
162.1021356100271
 30
0.0
  0
VERTEX
  5
299
330
288
100
AcDbEntity
  8
Sichtbare Kanten(TC_020513_DIN)
100
AcDbVertex
100
AcDb2dVertex
 10
61.03737623027305
 20
162.1110631937215
 30
0.0
  0
VERTEX
  5
29A
330
288
100
AcDbEntity
  8
Sichtbare Kanten(TC_020513_DIN)
100
AcDbVertex
100
AcDb2dVertex
 10
61.03613168529014
 20
162.119990777416
 30
0.0
  0
VERTEX
  5
29B
330
288
100
AcDbEntity
  8
Sichtbare Kanten(TC_020513_DIN)
100
AcDbVertex
100
AcDb2dVertex
 10
61.03503495982628
 20
162.1289171690176
 30
0.0
  0
VERTEX
  5
29C
330
288
100
AcDbEntity
  8
Sichtbare Kanten(TC_020513_DIN)
100
AcDbVertex
100
AcDb2dVertex
 10
61.03408605388145
 20
162.137844752712
 30
0.0
  0
VERTEX
  5
29D
330
288
100
AcDbEntity
  8
Sichtbare Kanten(TC_020513_DIN)
100
AcDbVertex
100
AcDb2dVertex
 10
61.03328019908409
 20
162.1467711443136
 30
0.0
  0
VERTEX
  5
29E
330
288
100
AcDbEntity
  8
Sichtbare Kanten(TC_020513_DIN)
100
AcDbVertex
100
AcDb2dVertex
 10
61.03262216380577
 20
162.1556975359152
 30
0.0
  0
VERTEX
  5
29F
330
288
100
AcDbEntity
  8
Sichtbare Kanten(TC_020513_DIN)
100
AcDbVertex
100
AcDb2dVertex
 10
61.03211194804649
 20
162.1646251196096
 30
0.0
  0
VERTEX
  5
2A0
330
288
100
AcDbEntity
  8
Sichtbare Kanten(TC_020513_DIN)
100
AcDbVertex
100
AcDb2dVertex
 10
61.03174478343468
 20
162.1735527033041
 30
0.0
  0
VERTEX
  5
2A1
330
288
100
AcDbEntity
  8
Sichtbare Kanten(TC_020513_DIN)
100
AcDbVertex
100
AcDb2dVertex
 10
61.0315254383419
 20
162.1824814790914
 30
0.0
  0
VERTEX
  5
2A2
330
288
100
AcDbEntity
  8
Sichtbare Kanten(TC_020513_DIN)
100
AcDbVertex
100
AcDb2dVertex
 10
61.03145391276817
 20
162.1914090627859
 30
0.0
  0
SEQEND
  5
28B
330
288
100
AcDbEntity
  8
Sichtbare Kanten(TC_020513_DIN)
  0
POLYLINE
  5
2A3
330
37
100
AcDbEntity
  8
Sichtbare Kanten(TC_020513_DIN)
100
AcDb2dPolyline
 66
     1
 10
0.0
 20
0.0
 30
0.0
 70
   128
  0
VERTEX
  5
2A4
330
2A3
100
AcDbEntity
  8
Sichtbare Kanten(TC_020513_DIN)
100
AcDbVertex
100
AcDb2dVertex
 10
62.43145257762413
 20
162.1914090627859
 30
0.0
  0
VERTEX
  5
2A5
330
2A3
100
AcDbEntity
  8
Sichtbare Kanten(TC_020513_DIN)
100
AcDbVertex
100
AcDb2dVertex
 10
62.43149072459678
 20
162.1824814790914
 30
0.0
  0
VERTEX
  5
2A7
330
2A3
100
AcDbEntity
  8
Sichtbare Kanten(TC_020513_DIN)
100
AcDbVertex
100
AcDb2dVertex
 10
62.43160039714317
 20
162.1735527033041
 30
0.0
  0
VERTEX
  5
2A8
330
2A3
100
AcDbEntity
  8
Sichtbare Kanten(TC_020513_DIN)
100
AcDbVertex
100
AcDb2dVertex
 10
62.43178159526329
 20
162.1646251196096
 30
0.0
  0
VERTEX
  5
2A9
330
2A3
100
AcDbEntity
  8
Sichtbare Kanten(TC_020513_DIN)
100
AcDbVertex
100
AcDb2dVertex
 10
62.43203908732872
 20
162.1556975359152
 30
0.0
  0
VERTEX
  5
2AA
330
2A3
100
AcDbEntity
  8
Sichtbare Kanten(TC_020513_DIN)
100
AcDbVertex
100
AcDb2dVertex
 10
62.43236810496788
 20
162.1467711443136
 30
0.0
  0
VERTEX
  5
2AB
330
2A3
100
AcDbEntity
  8
Sichtbare Kanten(TC_020513_DIN)
100
AcDbVertex
100
AcDb2dVertex
 10
62.43276864818077
 20
162.137844752712
 30
0.0
  0
VERTEX
  5
2AC
330
2A3
100
AcDbEntity
  8
Sichtbare Kanten(TC_020513_DIN)
100
AcDbVertex
100
AcDb2dVertex
 10
62.43324548533897
 20
162.1289171690176
 30
0.0
  0
VERTEX
  5
2AD
330
2A3
100
AcDbEntity
  8
Sichtbare Kanten(TC_020513_DIN)
100
AcDbVertex
100
AcDb2dVertex
 10
62.43379384807091
 20
162.119990777416
 30
0.0
  0
VERTEX
  5
2AE
330
2A3
100
AcDbEntity
  8
Sichtbare Kanten(TC_020513_DIN)
100
AcDbVertex
100
AcDb2dVertex
 10
62.43441373637657
 20
162.1110631937215
 30
0.0
  0
VERTEX
  5
2AF
330
2A3
100
AcDbEntity
  8
Sichtbare Kanten(TC_020513_DIN)
100
AcDbVertex
100
AcDb2dVertex
 10
62.43510991862755
 20
162.1021356100271
 30
0.0
  0
VERTEX
  5
2B0
330
2A3
100
AcDbEntity
  8
Sichtbare Kanten(TC_020513_DIN)
100
AcDbVertex
100
AcDb2dVertex
 10
62.43587285808067
 20
162.0932068342398
 30
0.0
  0
VERTEX
  5
2B1
330
2A3
100
AcDbEntity
  8
Sichtbare Kanten(TC_020513_DIN)
100
AcDbVertex
100
AcDb2dVertex
 10
62.43671685985069
 20
162.0842792505453
 30
0.0
  0
VERTEX
  5
2B2
330
2A3
100
AcDbEntity
  8
Sichtbare Kanten(TC_020513_DIN)
100
AcDbVertex
100
AcDb2dVertex
 10
62.43762761882286
 20
162.0753504747579
 30
0.0
  0
VERTEX
  5
2B3
330
2A3
100
AcDbEntity
  8
Sichtbare Kanten(TC_020513_DIN)
100
AcDbVertex
100
AcDb2dVertex
 10
62.43861467174034
 20
162.0664216989706
 30
0.0
  0
VERTEX
  5
2B4
330
2A3
100
AcDbEntity
  8
Sichtbare Kanten(TC_020513_DIN)
100
AcDbVertex
100
AcDb2dVertex
 10
62.43967325023155
 20
162.0574941152761
 30
0.0
  0
VERTEX
  5
2B5
330
2A3
100
AcDbEntity
  8
Sichtbare Kanten(TC_020513_DIN)
100
AcDbVertex
100
AcDb2dVertex
 10
62.44080335429649
 20
162.0485677236746
 30
0.0
  0
VERTEX
  5
2B6
330
2A3
100
AcDbEntity
  8
Sichtbare Kanten(TC_020513_DIN)
100
AcDbVertex
100
AcDb2dVertex
 10
62.44200498393516
 20
162.0396401399801
 30
0.0
  0
VERTEX
  5
2B7
330
2A3
100
AcDbEntity
  8
Sichtbare Kanten(TC_020513_DIN)
100
AcDbVertex
100
AcDb2dVertex
 10
62.44328290751915
 20
162.0307137483785
 30
0.0
  0
VERTEX
  5
2B8
330
2A3
100
AcDbEntity
  8
Sichtbare Kanten(TC_020513_DIN)
100
AcDbVertex
100
AcDb2dVertex
 10
62.44463235667686
 20
162.0217861646841
 30
0.0
  0
VERTEX
  5
2B9
330
2A3
100
AcDbEntity
  8
Sichtbare Kanten(TC_020513_DIN)
100
AcDbVertex
100
AcDb2dVertex
 10
62.44605333140831
 20
162.0128597730825
 30
0.0
  0
VERTEX
  5
2BA
330
2A3
100
AcDbEntity
  8
Sichtbare Kanten(TC_020513_DIN)
100
AcDbVertex
100
AcDb2dVertex
 10
62.44754583171348
 20
162.0039321893881
 30
0.0
  0
VERTEX
  5
2BB
330
2A3
100
AcDbEntity
  8
Sichtbare Kanten(TC_020513_DIN)
100
AcDbVertex
100
AcDb2dVertex
 10
62.44911462596397
 20
161.9950046056936
 30
0.0
  0
VERTEX
  5
2BC
330
2A3
100
AcDbEntity
  8
Sichtbare Kanten(TC_020513_DIN)
100
AcDbVertex
100
AcDb2dVertex
 10
62.45075017741661
 20
161.9860770219991
 30
0.0
  0
VERTEX
  5
2BD
330
2A3
100
AcDbEntity
  8
Sichtbare Kanten(TC_020513_DIN)
100
AcDbVertex
100
AcDb2dVertex
 10
62.45246202281456
 20
161.9771482462118
 30
0.0
  0
SEQEND
  5
2A6
330
2A3
100
AcDbEntity
  8
Sichtbare Kanten(TC_020513_DIN)
  0
LINE
  5
2BE
330
37
100
AcDbEntity
  8
Sichtbare Kanten(TC_020513_DIN)
100
AcDbLine
 10
61.81545104631364
 20
162.1914096019791
 30
0.0
 11
62.43145295909386
 21
162.1914096019791
 31
0.0
  0
LINE
  5
2BF
330
37
100
AcDbEntity
  8
Sichtbare Kanten(TC_020513_DIN)
100
AcDbLine
 10
61.03145295909385
 20
162.1914096019791
 30
0.0
 11
61.81545104631364
 21
162.1914096019791
 31
0.0
  0
POLYLINE
  5
2C0
330
37
100
AcDbEntity
  8
Sichtbare Kanten(TC_020513_DIN)
100
AcDb2dPolyline
 66
     1
 10
0.0
 20
0.0
 30
0.0
 70
   128
  0
VERTEX
  5
2C1
330
2C0
100
AcDbEntity
  8
Sichtbare Kanten(TC_020513_DIN)
100
AcDbVertex
100
AcDb2dVertex
 10
61.46239072612266
 20
161.756153296871
 30
0.0
  0
VERTEX
  5
2C2
330
2C0
100
AcDbEntity
  8
Sichtbare Kanten(TC_020513_DIN)
100
AcDbVertex
100
AcDb2dVertex
 10
61.43297464183311
 20
161.7566921228597
 30
0.0
  0
VERTEX
  5
2C4
330
2C0
100
AcDbEntity
  8
Sichtbare Kanten(TC_020513_DIN)
100
AcDbVertex
100
AcDb2dVertex
 10
61.40455514720421
 20
161.7583121771047
 30
0.0
  0
VERTEX
  5
2C5
330
2C0
100
AcDbEntity
  8
Sichtbare Kanten(TC_020513_DIN)
100
AcDbVertex
100
AcDb2dVertex
 10
61.37713701060753
 20
161.7610182279775
 30
0.0
  0
VERTEX
  5
2C6
330
2C0
100
AcDbEntity
  8
Sichtbare Kanten(TC_020513_DIN)
100
AcDbVertex
100
AcDb2dVertex
 10
61.3507393055294
 20
161.7648150438497
 30
0.0
  0
VERTEX
  5
2C7
330
2C0
100
AcDbEntity
  8
Sichtbare Kanten(TC_020513_DIN)
100
AcDbVertex
100
AcDb2dVertex
 10
61.32536203196983
 20
161.7697050089071
 30
0.0
  0
VERTEX
  5
2C8
330
2C0
100
AcDbEntity
  8
Sichtbare Kanten(TC_020513_DIN)
100
AcDbVertex
100
AcDb2dVertex
 10
61.30102426341514
 20
161.7756940836141
 30
0.0
  0
VERTEX
  5
2C9
330
2C0
100
AcDbEntity
  8
Sichtbare Kanten(TC_020513_DIN)
100
AcDbVertex
100
AcDb2dVertex
 10
61.27773076823692
 20
161.7827858442495
 30
0.0
  0
VERTEX
  5
2CA
330
2C0
100
AcDbEntity
  8
Sichtbare Kanten(TC_020513_DIN)
100
AcDbVertex
100
AcDb2dVertex
 10
61.25549585154991
 20
161.7909850591848
 30
0.0
  0
VERTEX
  5
2CB
330
2C0
100
AcDbEntity
  8
Sichtbare Kanten(TC_020513_DIN)
100
AcDbVertex
100
AcDb2dVertex
 10
61.23432428172569
 20
161.8002953046987
 30
0.0
  0
VERTEX
  5
2CC
330
2C0
100
AcDbEntity
  8
Sichtbare Kanten(TC_020513_DIN)
100
AcDbVertex
100
AcDb2dVertex
 10
61.21423990062218
 20
161.8107165807913
 30
0.0
  0
VERTEX
  5
2CD
330
2C0
100
AcDbEntity
  8
Sichtbare Kanten(TC_020513_DIN)
100
AcDbVertex
100
AcDb2dVertex
 10
61.19565278819542
 20
161.8219985479543
 30
0.0
  0
VERTEX
  5
2CE
330
2C0
100
AcDbEntity
  8
Sichtbare Kanten(TC_020513_DIN)
100
AcDbVertex
100
AcDb2dVertex
 10
61.1787012272213
 20
161.833912324352
 30
0.0
  0
VERTEX
  5
2CF
330
2C0
100
AcDbEntity
  8
Sichtbare Kanten(TC_020513_DIN)
100
AcDbVertex
100
AcDb2dVertex
 10
61.1633089237545
 20
161.8463220113943
 30
0.0
  0
VERTEX
  5
2D0
330
2C0
100
AcDbEntity
  8
Sichtbare Kanten(TC_020513_DIN)
100
AcDbVertex
100
AcDb2dVertex
 10
61.14938527873497
 20
161.8590940946767
 30
0.0
  0
VERTEX
  5
2D1
330
2C0
100
AcDbEntity
  8
Sichtbare Kanten(TC_020513_DIN)
100
AcDbVertex
100
AcDb2dVertex
 10
61.13685876658897
 20
161.8720938677023
 30
0.0
  0
VERTEX
  5
2D2
330
2C0
100
AcDbEntity
  8
Sichtbare Kanten(TC_020513_DIN)
100
AcDbVertex
100
AcDb2dVertex
 10
61.12564355662803
 20
161.8851866239736
 30
0.0
  0
VERTEX
  5
2D3
330
2C0
100
AcDbEntity
  8
Sichtbare Kanten(TC_020513_DIN)
100
AcDbVertex
100
AcDb2dVertex
 10
61.11565858653526
 20
161.8982388490865
 30
0.0
  0
VERTEX
  5
2D4
330
2C0
100
AcDbEntity
  8
Sichtbare Kanten(TC_020513_DIN)
100
AcDbVertex
100
AcDb2dVertex
 10
61.10682756236534
 20
161.9111146444509
 30
0.0
  0
VERTEX
  5
2D5
330
2C0
100
AcDbEntity
  8
Sichtbare Kanten(TC_020513_DIN)
100
AcDbVertex
100
AcDb2dVertex
 10
61.09906465342979
 20
161.9236804956625
 30
0.0
  0
VERTEX
  5
2D6
330
2C0
100
AcDbEntity
  8
Sichtbare Kanten(TC_020513_DIN)
100
AcDbVertex
100
AcDb2dVertex
 10
61.09229356578331
 20
161.9358005041311
 30
0.0
  0
VERTEX
  5
2D7
330
2C0
100
AcDbEntity
  8
Sichtbare Kanten(TC_020513_DIN)
100
AcDbVertex
100
AcDb2dVertex
 10
61.08642846873741
 20
161.9473423475454
 30
0.0
  0
VERTEX
  5
2D8
330
2C0
100
AcDbEntity
  8
Sichtbare Kanten(TC_020513_DIN)
100
AcDbVertex
100
AcDb2dVertex
 10
61.0813882999752
 20
161.9581701273153
 30
0.0
  0
VERTEX
  5
2D9
330
2C0
100
AcDbEntity
  8
Sichtbare Kanten(TC_020513_DIN)
100
AcDbVertex
100
AcDb2dVertex
 10
61.07709676555137
 20
161.9681503290365
 30
0.0
  0
VERTEX
  5
2DA
330
2C0
100
AcDbEntity
  8
Sichtbare Kanten(TC_020513_DIN)
100
AcDbVertex
100
AcDb2dVertex
 10
61.07346803477745
 20
161.9771482462118
 30
0.0
  0
SEQEND
  5
2C3
330
2C0
100
AcDbEntity
  8
Sichtbare Kanten(TC_020513_DIN)
  0
POLYLINE
  5
2DB
330
37
100
AcDbEntity
  8
Sichtbare Kanten(TC_020513_DIN)
100
AcDb2dPolyline
 66
     1
 10
0.0
 20
0.0
 30
0.0
 70
   128
  0
VERTEX
  5
2DC
330
2DB
100
AcDbEntity
  8
Sichtbare Kanten(TC_020513_DIN)
100
AcDbVertex
100
AcDb2dVertex
 10
62.45246202281456
 20
161.9771482462118
 30
0.0
  0
VERTEX
  5
2DD
330
2DB
100
AcDbEntity
  8
Sichtbare Kanten(TC_020513_DIN)
100
AcDbVertex
100
AcDb2dVertex
 10
62.45428830913048
 20
161.968064498348
 30
0.0
  0
VERTEX
  5
2DF
330
2DB
100
AcDbEntity
  8
Sichtbare Kanten(TC_020513_DIN)
100
AcDbVertex
100
AcDb2dVertex
 10
62.45642453959923
 20
161.9580854887197
 30
0.0
  0
VERTEX
  5
2E0
330
2DB
100
AcDbEntity
  8
Sichtbare Kanten(TC_020513_DIN)
100
AcDbVertex
100
AcDb2dVertex
 10
62.45891362956505
 20
161.9473304266165
 30
0.0
  0
VERTEX
  5
2E1
330
2DB
100
AcDbEntity
  8
Sichtbare Kanten(TC_020513_DIN)
100
AcDbVertex
100
AcDb2dVertex
 10
62.46179372600059
 20
161.9359232896993
 30
0.0
  0
VERTEX
  5
2E2
330
2DB
100
AcDbEntity
  8
Sichtbare Kanten(TC_020513_DIN)
100
AcDbVertex
100
AcDb2dVertex
 10
62.46510297587852
 20
161.9239844793508
 30
0.0
  0
VERTEX
  5
2E3
330
2DB
100
AcDbEntity
  8
Sichtbare Kanten(TC_020513_DIN)
100
AcDbVertex
100
AcDb2dVertex
 10
62.46888906291466
 20
161.9116355890463
 30
0.0
  0
VERTEX
  5
2E4
330
2DB
100
AcDbEntity
  8
Sichtbare Kanten(TC_020513_DIN)
100
AcDbVertex
100
AcDb2dVertex
 10
62.47319013408165
 20
161.8989994043539
 30
0.0
  0
VERTEX
  5
2E5
330
2DB
100
AcDbEntity
  8
Sichtbare Kanten(TC_020513_DIN)
100
AcDbVertex
100
AcDb2dVertex
 10
62.47804433635216
 20
161.8861963266561
 30
0.0
  0
VERTEX
  5
2E6
330
2DB
100
AcDbEntity
  8
Sichtbare Kanten(TC_020513_DIN)
100
AcDbVertex
100
AcDb2dVertex
 10
62.48349458507042
 20
161.8733491415212
 30
0.0
  0
VERTEX
  5
2E7
330
2DB
100
AcDbEntity
  8
Sichtbare Kanten(TC_020513_DIN)
100
AcDbVertex
100
AcDb2dVertex
 10
62.48957902720909
 20
161.8605794424246
 30
0.0
  0
VERTEX
  5
2E8
330
2DB
100
AcDbEntity
  8
Sichtbare Kanten(TC_020513_DIN)
100
AcDbVertex
100
AcDb2dVertex
 10
62.49634534648399
 20
161.8480088228414
 30
0.0
  0
VERTEX
  5
2E9
330
2DB
100
AcDbEntity
  8
Sichtbare Kanten(TC_020513_DIN)
100
AcDbVertex
100
AcDb2dVertex
 10
62.50382215312462
 20
161.8357588762472
 30
0.0
  0
VERTEX
  5
2EA
330
2DB
100
AcDbEntity
  8
Sichtbare Kanten(TC_020513_DIN)
100
AcDbVertex
100
AcDb2dVertex
 10
62.51206189921837
 20
161.8239511961172
 30
0.0
  0
VERTEX
  5
2EB
330
2DB
100
AcDbEntity
  8
Sichtbare Kanten(TC_020513_DIN)
100
AcDbVertex
100
AcDb2dVertex
 10
62.52109796336632
 20
161.8127085680197
 30
0.0
  0
VERTEX
  5
2EC
330
2DB
100
AcDbEntity
  8
Sichtbare Kanten(TC_020513_DIN)
100
AcDbVertex
100
AcDb2dVertex
 10
62.53090650371055
 20
161.8022241110037
 30
0.0
  0
VERTEX
  5
2ED
330
2DB
100
AcDbEntity
  8
Sichtbare Kanten(TC_020513_DIN)
100
AcDbVertex
100
AcDb2dVertex
 10
62.54133493236046
 20
161.7927469724844
 30
0.0
  0
VERTEX
  5
2EE
330
2DB
100
AcDbEntity
  8
Sichtbare Kanten(TC_020513_DIN)
100
AcDbVertex
100
AcDb2dVertex
 10
62.55238801768761
 20
161.7843081468771
 30
0.0
  0
VERTEX
  5
2EF
330
2DB
100
AcDbEntity
  8
Sichtbare Kanten(TC_020513_DIN)
100
AcDbVertex
100
AcDb2dVertex
 10
62.56407529643516
 20
161.776927899761
 30
0.0
  0
VERTEX
  5
2F0
330
2DB
100
AcDbEntity
  8
Sichtbare Kanten(TC_020513_DIN)
100
AcDbVertex
100
AcDb2dVertex
 10
62.57640153697471
 20
161.7706276888082
 30
0.0
  0
VERTEX
  5
2F1
330
2DB
100
AcDbEntity
  8
Sichtbare Kanten(TC_020513_DIN)
100
AcDbVertex
100
AcDb2dVertex
 10
62.58935720256309
 20
161.7654373163412
 30
0.0
  0
VERTEX
  5
2F2
330
2DB
100
AcDbEntity
  8
Sichtbare Kanten(TC_020513_DIN)
100
AcDbVertex
100
AcDb2dVertex
 10
62.60289460948448
 20
161.7613865846822
 30
0.0
  0
VERTEX
  5
2F3
330
2DB
100
AcDbEntity
  8
Sichtbare Kanten(TC_020513_DIN)
100
AcDbVertex
100
AcDb2dVertex
 10
62.61700422099571
 20
161.7584838384817
 30
0.0
  0
VERTEX
  5
2F4
330
2DB
100
AcDbEntity
  8
Sichtbare Kanten(TC_020513_DIN)
100
AcDbVertex
100
AcDb2dVertex
 10
62.6316812687252
 20
161.7567374223898
 30
0.0
  0
VERTEX
  5
2F5
330
2DB
100
AcDbEntity
  8
Sichtbare Kanten(TC_020513_DIN)
100
AcDbVertex
100
AcDb2dVertex
 10
62.64692098430137
 20
161.756153296871
 30
0.0
  0
SEQEND
  5
2DE
330
2DB
100
AcDbEntity
  8
Sichtbare Kanten(TC_020513_DIN)
  0
LINE
  5
2F6
330
37
100
AcDbEntity
  8
Sichtbare Kanten(TC_020513_DIN)
100
AcDbLine
 10
63.83145295909385
 20
151.7561533527827
 30
0.0
 11
61.03145295909385
 21
151.7561533527827
 31
0.0
  0
LINE
  5
2F7
330
37
100
AcDbEntity
  8
Sichtbare Kanten(TC_020513_DIN)
100
AcDbLine
 10
61.46239243075033
 20
161.7561533527826
 30
0.0
 11
63.83145295909385
 21
161.7561533527827
 31
0.0
  0
POLYLINE
  5
2F8
330
37
100
AcDbEntity
  8
Sichtbare Kanten(TC_020513_DIN)
100
AcDb2dPolyline
 66
     1
 10
0.0
 20
0.0
 30
0.0
 70
   128
  0
VERTEX
  5
2F9
330
2F8
100
AcDbEntity
  8
Sichtbare Kanten(TC_020513_DIN)
100
AcDbVertex
100
AcDb2dVertex
 10
74.74697858623009
 20
161.1192371362875
 30
0.0
  0
VERTEX
  5
2FA
330
2F8
100
AcDbEntity
  8
Sichtbare Kanten(TC_020513_DIN)
100
AcDbVertex
100
AcDb2dVertex
 10
74.77460891536217
 20
161.2527276987264
 30
0.0
  0
VERTEX
  5
2FC
330
2F8
100
AcDbEntity
  8
Sichtbare Kanten(TC_020513_DIN)
100
AcDbVertex
100
AcDb2dVertex
 10
74.80218679240684
 20
161.3831521982382
 30
0.0
  0
VERTEX
  5
2FD
330
2F8
100
AcDbEntity
  8
Sichtbare Kanten(TC_020513_DIN)
100
AcDbVertex
100
AcDb2dVertex
 10
74.82973367503624
 20
161.5102710241506
 30
0.0
  0
VERTEX
  5
2FE
330
2F8
100
AcDbEntity
  8
Sichtbare Kanten(TC_020513_DIN)
100
AcDbVertex
100
AcDb2dVertex
 10
74.8572614841793
 20
161.6338445657919
 30
0.0
  0
VERTEX
  5
2FF
330
2F8
100
AcDbEntity
  8
Sichtbare Kanten(TC_020513_DIN)
100
AcDbVertex
100
AcDb2dVertex
 10
74.88479167750816
 20
161.753632020397
 30
0.0
  0
VERTEX
  5
300
330
2F8
100
AcDbEntity
  8
Sichtbare Kanten(TC_020513_DIN)
100
AcDbVertex
100
AcDb2dVertex
 10
74.91234332850914
 20
161.8693961614797
 30
0.0
  0
VERTEX
  5
301
330
2F8
100
AcDbEntity
  8
Sichtbare Kanten(TC_020513_DIN)
100
AcDbVertex
100
AcDb2dVertex
 10
74.93993312648277
 20
161.9808949941824
 30
0.0
  0
VERTEX
  5
302
330
2F8
100
AcDbEntity
  8
Sichtbare Kanten(TC_020513_DIN)
100
AcDbVertex
100
AcDb2dVertex
 10
74.96757299235802
 20
162.087875794811
 30
0.0
  0
VERTEX
  5
303
330
2F8
100
AcDbEntity
  8
Sichtbare Kanten(TC_020513_DIN)
100
AcDbVertex
100
AcDb2dVertex
 10
74.99518901637535
 20
162.1897568220327
 30
0.0
  0
VERTEX
  5
304
330
2F8
100
AcDbEntity
  8
Sichtbare Kanten(TC_020513_DIN)
100
AcDbVertex
100
AcDb2dVertex
 10
75.02275974086265
 20
162.2862066740225
 30
0.0
  0
VERTEX
  5
305
330
2F8
100
AcDbEntity
  8
Sichtbare Kanten(TC_020513_DIN)
100
AcDbVertex
100
AcDb2dVertex
 10
75.05029947093468
 20
162.3770596498678
 30
0.0
  0
VERTEX
  5
306
330
2F8
100
AcDbEntity
  8
Sichtbare Kanten(TC_020513_DIN)
100
AcDbVertex
100
AcDb2dVertex
 10
75.07782728007774
 20
162.4621500486562
 30
0.0
  0
VERTEX
  5
307
330
2F8
100
AcDbEntity
  8
Sichtbare Kanten(TC_020513_DIN)
100
AcDbVertex
100
AcDb2dVertex
 10
75.10536224177818
 20
162.5413121694753
 30
0.0
  0
VERTEX
  5
308
330
2F8
100
AcDbEntity
  8
Sichtbare Kanten(TC_020513_DIN)
100
AcDbVertex
100
AcDb2dVertex
 10
75.13291866115074
 20
162.6143826955984
 30
0.0
  0
VERTEX
  5
309
330
2F8
100
AcDbEntity
  8
Sichtbare Kanten(TC_020513_DIN)
100
AcDbVertex
100
AcDb2dVertex
 10
75.16051799586754
 20
162.6811959261129
 30
0.0
  0
VERTEX
  5
30A
330
2F8
100
AcDbEntity
  8
Sichtbare Kanten(TC_020513_DIN)
100
AcDbVertex
100
AcDb2dVertex
 10
75.18816739848594
 20
162.7415623182485
 30
0.0
  0
VERTEX
  5
30B
330
2F8
100
AcDbEntity
  8
Sichtbare Kanten(TC_020513_DIN)
100
AcDbVertex
100
AcDb2dVertex
 10
75.21580249598961
 20
162.7951755041311
 30
0.0
  0
VERTEX
  5
30C
330
2F8
100
AcDbEntity
  8
Sichtbare Kanten(TC_020513_DIN)
100
AcDbVertex
100
AcDb2dVertex
 10
75.24342567256431
 20
162.8419091219137
 30
0.0
  0
VERTEX
  5
30D
330
2F8
100
AcDbEntity
  8
Sichtbare Kanten(TC_020513_DIN)
100
AcDbVertex
100
AcDb2dVertex
 10
75.2710536175106
 20
162.8816725725362
 30
0.0
  0
VERTEX
  5
30E
330
2F8
100
AcDbEntity
  8
Sichtbare Kanten(TC_020513_DIN)
100
AcDbVertex
100
AcDb2dVertex
 10
75.2987054043148
 20
162.9143752569387
 30
0.0
  0
VERTEX
  5
30F
330
2F8
100
AcDbEntity
  8
Sichtbare Kanten(TC_020513_DIN)
100
AcDbVertex
100
AcDb2dVertex
 10
75.32634527019005
 20
162.9398860449026
 30
0.0
  0
VERTEX
  5
310
330
2F8
100
AcDbEntity
  8
Sichtbare Kanten(TC_020513_DIN)
100
AcDbVertex
100
AcDb2dVertex
 10
75.35396844676475
 20
162.958146523876
 30
0.0
  0
VERTEX
  5
311
330
2F8
100
AcDbEntity
  8
Sichtbare Kanten(TC_020513_DIN)
100
AcDbVertex
100
AcDb2dVertex
 10
75.38159400752525
 20
162.9691245073507
 30
0.0
  0
VERTEX
  5
312
330
2F8
100
AcDbEntity
  8
Sichtbare Kanten(TC_020513_DIN)
100
AcDbVertex
100
AcDb2dVertex
 10
75.40924102595787
 20
162.9727901930044
 30
0.0
  0
SEQEND
  5
2FB
330
2F8
100
AcDbEntity
  8
Sichtbare Kanten(TC_020513_DIN)
  0
POLYLINE
  5
313
330
37
100
AcDbEntity
  8
Sichtbare Kanten(TC_020513_DIN)
100
AcDb2dPolyline
 66
     1
 10
0.0
 20
0.0
 30
0.0
 70
   128
  0
VERTEX
  5
314
330
313
100
AcDbEntity
  8
Sichtbare Kanten(TC_020513_DIN)
100
AcDbVertex
100
AcDb2dVertex
 10
75.40924102595787
 20
161.5727903360555
 30
0.0
  0
VERTEX
  5
315
330
313
100
AcDbEntity
  8
Sichtbare Kanten(TC_020513_DIN)
100
AcDbVertex
100
AcDb2dVertex
 10
75.38158447078209
 20
161.5709557050893
 30
0.0
  0
VERTEX
  5
317
330
313
100
AcDbEntity
  8
Sichtbare Kanten(TC_020513_DIN)
100
AcDbVertex
100
AcDb2dVertex
 10
75.3539827518795
 20
161.56547207777
 30
0.0
  0
VERTEX
  5
318
330
313
100
AcDbEntity
  8
Sichtbare Kanten(TC_020513_DIN)
100
AcDbVertex
100
AcDb2dVertex
 10
75.32641917994957
 20
161.5563668722341
 30
0.0
  0
VERTEX
  5
319
330
313
100
AcDbEntity
  8
Sichtbare Kanten(TC_020513_DIN)
100
AcDbVertex
100
AcDb2dVertex
 10
75.29887468150596
 20
161.543671082897
 30
0.0
  0
VERTEX
  5
31A
330
313
100
AcDbEntity
  8
Sichtbare Kanten(TC_020513_DIN)
100
AcDbVertex
100
AcDb2dVertex
 10
75.27133256724815
 20
161.527413319988
 30
0.0
  0
VERTEX
  5
31B
330
313
100
AcDbEntity
  8
Sichtbare Kanten(TC_020513_DIN)
100
AcDbVertex
100
AcDb2dVertex
 10
75.2437737636898
 20
161.5076210016439
 30
0.0
  0
VERTEX
  5
31C
330
313
100
AcDbEntity
  8
Sichtbare Kanten(TC_020513_DIN)
100
AcDbVertex
100
AcDb2dVertex
 10
75.21617919734459
 20
161.4843251222799
 30
0.0
  0
VERTEX
  5
31D
330
313
100
AcDbEntity
  8
Sichtbare Kanten(TC_020513_DIN)
100
AcDbVertex
100
AcDb2dVertex
 10
75.18853456309776
 20
161.4575542921255
 30
0.0
  0
VERTEX
  5
31E
330
313
100
AcDbEntity
  8
Sichtbare Kanten(TC_020513_DIN)
100
AcDbVertex
100
AcDb2dVertex
 10
75.16086847117882
 20
161.427395533962
 30
0.0
  0
VERTEX
  5
31F
330
313
100
AcDbEntity
  8
Sichtbare Kanten(TC_020513_DIN)
100
AcDbVertex
100
AcDb2dVertex
 10
75.13325959971886
 20
161.3940169328878
 30
0.0
  0
VERTEX
  5
320
330
313
100
AcDbEntity
  8
Sichtbare Kanten(TC_020513_DIN)
100
AcDbVertex
100
AcDb2dVertex
 10
75.10568887523155
 20
161.3575055116842
 30
0.0
  0
VERTEX
  5
321
330
313
100
AcDbEntity
  8
Sichtbare Kanten(TC_020513_DIN)
100
AcDbVertex
100
AcDb2dVertex
 10
75.07814199260216
 20
161.3179411405752
 30
0.0
  0
VERTEX
  5
322
330
313
100
AcDbEntity
  8
Sichtbare Kanten(TC_020513_DIN)
100
AcDbVertex
100
AcDb2dVertex
 10
75.05060226253013
 20
161.2754072660635
 30
0.0
  0
VERTEX
  5
323
330
313
100
AcDbEntity
  8
Sichtbare Kanten(TC_020513_DIN)
100
AcDbVertex
100
AcDb2dVertex
 10
75.02304584315758
 20
161.2299861425588
 30
0.0
  0
VERTEX
  5
324
330
313
100
AcDbEntity
  8
Sichtbare Kanten(TC_020513_DIN)
100
AcDbVertex
100
AcDb2dVertex
 10
74.99546081355553
 20
161.1817588323782
 30
0.0
  0
VERTEX
  5
325
330
313
100
AcDbEntity
  8
Sichtbare Kanten(TC_020513_DIN)
100
AcDbVertex
100
AcDb2dVertex
 10
74.96782571605186
 20
161.1308087820242
 30
0.0
  0
VERTEX
  5
326
330
313
100
AcDbEntity
  8
Sichtbare Kanten(TC_020513_DIN)
100
AcDbVertex
100
AcDb2dVertex
 10
74.94015247157554
 20
161.0772790426443
 30
0.0
  0
VERTEX
  5
327
330
313
100
AcDbEntity
  8
Sichtbare Kanten(TC_020513_DIN)
100
AcDbVertex
100
AcDb2dVertex
 10
74.91252929500084
 20
161.0214759821127
 30
0.0
  0
VERTEX
  5
328
330
313
100
AcDbEntity
  8
Sichtbare Kanten(TC_020513_DIN)
100
AcDbVertex
100
AcDb2dVertex
 10
74.88494426539879
 20
160.9635366911123
 30
0.0
  0
VERTEX
  5
329
330
313
100
AcDbEntity
  8
Sichtbare Kanten(TC_020513_DIN)
100
AcDbVertex
100
AcDb2dVertex
 10
74.85738069346886
 20
160.9035815710256
 30
0.0
  0
VERTEX
  5
32A
330
313
100
AcDbEntity
  8
Sichtbare Kanten(TC_020513_DIN)
100
AcDbVertex
100
AcDb2dVertex
 10
74.82982188991051
 20
160.841732215328
 30
0.0
  0
VERTEX
  5
32B
330
313
100
AcDbEntity
  8
Sichtbare Kanten(TC_020513_DIN)
100
AcDbVertex
100
AcDb2dVertex
 10
74.80224639705162
 20
160.7781066412161
 30
0.0
  0
VERTEX
  5
32C
330
313
100
AcDbEntity
  8
Sichtbare Kanten(TC_020513_DIN)
100
AcDbVertex
100
AcDb2dVertex
 10
74.77463752559166
 20
160.712827634258
 30
0.0
  0
VERTEX
  5
32D
330
313
100
AcDbEntity
  8
Sichtbare Kanten(TC_020513_DIN)
100
AcDbVertex
100
AcDb2dVertex
 10
74.74697858623009
 20
160.6460144037435
 30
0.0
  0
SEQEND
  5
316
330
313
100
AcDbEntity
  8
Sichtbare Kanten(TC_020513_DIN)
  0
LINE
  5
32E
330
37
100
AcDbEntity
  8
Sichtbare Kanten(TC_020513_DIN)
100
AcDbLine
 10
75.40923988461166
 20
162.1887917856549
 30
0.0
 11
75.40923988461166
 21
161.5727906553735
 31
0.0
  0
LINE
  5
32F
330
37
100
AcDbEntity
  8
Sichtbare Kanten(TC_020513_DIN)
100
AcDbLine
 10
75.40923988461165
 20
162.9727906553735
 30
0.0
 11
75.40923988461166
 21
162.1887917856549
 31
0.0
  0
POLYLINE
  5
330
330
37
100
AcDbEntity
  8
Sichtbare Kanten(TC_020513_DIN)
100
AcDb2dPolyline
 66
     1
 10
0.0
 20
0.0
 30
0.0
 70
   128
  0
VERTEX
  5
331
330
330
100
AcDbEntity
  8
Sichtbare Kanten(TC_020513_DIN)
100
AcDbVertex
100
AcDb2dVertex
 10
74.33555156520347
 20
160.1727904791067
 30
0.0
  0
VERTEX
  5
332
330
330
100
AcDbEntity
  8
Sichtbare Kanten(TC_020513_DIN)
100
AcDbVertex
100
AcDb2dVertex
 10
74.34575588038902
 20
160.1865472311208
 30
0.0
  0
VERTEX
  5
334
330
330
100
AcDbEntity
  8
Sichtbare Kanten(TC_020513_DIN)
100
AcDbVertex
100
AcDb2dVertex
 10
74.35728103450279
 20
160.2024116033743
 30
0.0
  0
VERTEX
  5
335
330
330
100
AcDbEntity
  8
Sichtbare Kanten(TC_020513_DIN)
100
AcDbVertex
100
AcDb2dVertex
 10
74.37001497081261
 20
160.2203537935445
 30
0.0
  0
VERTEX
  5
336
330
330
100
AcDbEntity
  8
Sichtbare Kanten(TC_020513_DIN)
100
AcDbVertex
100
AcDb2dVertex
 10
74.38385040095787
 20
160.2403511518667
 30
0.0
  0
VERTEX
  5
337
330
330
100
AcDbEntity
  8
Sichtbare Kanten(TC_020513_DIN)
100
AcDbVertex
100
AcDb2dVertex
 10
74.3986752682064
 20
160.2623750681112
 30
0.0
  0
VERTEX
  5
338
330
330
100
AcDbEntity
  8
Sichtbare Kanten(TC_020513_DIN)
100
AcDbVertex
100
AcDb2dVertex
 10
74.41438228419761
 20
160.2863993162344
 30
0.0
  0
VERTEX
  5
339
330
330
100
AcDbEntity
  8
Sichtbare Kanten(TC_020513_DIN)
100
AcDbVertex
100
AcDb2dVertex
 10
74.43086177638511
 20
160.3123976701925
 30
0.0
  0
VERTEX
  5
33A
330
330
100
AcDbEntity
  8
Sichtbare Kanten(TC_020513_DIN)
100
AcDbVertex
100
AcDb2dVertex
 10
74.44800645640831
 20
160.3403450960348
 30
0.0
  0
VERTEX
  5
33B
330
330
100
AcDbEntity
  8
Sichtbare Kanten(TC_020513_DIN)
100
AcDbVertex
100
AcDb2dVertex
 10
74.46570426753502
 20
160.3702129835317
 30
0.0
  0
VERTEX
  5
33C
330
330
100
AcDbEntity
  8
Sichtbare Kanten(TC_020513_DIN)
100
AcDbVertex
100
AcDb2dVertex
 10
74.48384792140465
 20
160.4019774908254
 30
0.0
  0
VERTEX
  5
33D
330
330
100
AcDbEntity
  8
Sichtbare Kanten(TC_020513_DIN)
100
AcDbVertex
100
AcDb2dVertex
 10
74.50232774547081
 20
160.4356100076864
 30
0.0
  0
VERTEX
  5
33E
330
330
100
AcDbEntity
  8
Sichtbare Kanten(TC_020513_DIN)
100
AcDbVertex
100
AcDb2dVertex
 10
74.52103406718712
 20
160.4710843080709
 30
0.0
  0
VERTEX
  5
33F
330
330
100
AcDbEntity
  8
Sichtbare Kanten(TC_020513_DIN)
100
AcDbVertex
100
AcDb2dVertex
 10
74.53985721400719
 20
160.5083753580282
 30
0.0
  0
VERTEX
  5
340
330
330
100
AcDbEntity
  8
Sichtbare Kanten(TC_020513_DIN)
100
AcDbVertex
100
AcDb2dVertex
 10
74.55868989757042
 20
160.5474557394216
 30
0.0
  0
VERTEX
  5
341
330
330
100
AcDbEntity
  8
Sichtbare Kanten(TC_020513_DIN)
100
AcDbVertex
100
AcDb2dVertex
 10
74.57742006114464
 20
160.5883004183004
 30
0.0
  0
VERTEX
  5
342
330
330
100
AcDbEntity
  8
Sichtbare Kanten(TC_020513_DIN)
100
AcDbVertex
100
AcDb2dVertex
 10
74.59594280055504
 20
160.630880784435
 30
0.0
  0
VERTEX
  5
343
330
330
100
AcDbEntity
  8
Sichtbare Kanten(TC_020513_DIN)
100
AcDbVertex
100
AcDb2dVertex
 10
74.61458951762657
 20
160.6761886591146
 30
0.0
  0
VERTEX
  5
344
330
330
100
AcDbEntity
  8
Sichtbare Kanten(TC_020513_DIN)
100
AcDbVertex
100
AcDb2dVertex
 10
74.63392526439171
 20
160.726005029125
 30
0.0
  0
VERTEX
  5
345
330
330
100
AcDbEntity
  8
Sichtbare Kanten(TC_020513_DIN)
100
AcDbVertex
100
AcDb2dVertex
 10
74.65364724925499
 20
160.7803453916738
 30
0.0
  0
VERTEX
  5
346
330
330
100
AcDbEntity
  8
Sichtbare Kanten(TC_020513_DIN)
100
AcDbVertex
100
AcDb2dVertex
 10
74.67343837550621
 20
160.8391918653677
 30
0.0
  0
VERTEX
  5
347
330
330
100
AcDbEntity
  8
Sichtbare Kanten(TC_020513_DIN)
100
AcDbVertex
100
AcDb2dVertex
 10
74.69298631480675
 20
160.9025241846273
 30
0.0
  0
VERTEX
  5
348
330
330
100
AcDbEntity
  8
Sichtbare Kanten(TC_020513_DIN)
100
AcDbVertex
100
AcDb2dVertex
 10
74.71196920207481
 20
160.9703220838735
 30
0.0
  0
VERTEX
  5
349
330
330
100
AcDbEntity
  8
Sichtbare Kanten(TC_020513_DIN)
100
AcDbVertex
100
AcDb2dVertex
 10
74.73007232478599
 20
161.0425652975271
 30
0.0
  0
VERTEX
  5
34A
330
330
100
AcDbEntity
  8
Sichtbare Kanten(TC_020513_DIN)
100
AcDbVertex
100
AcDb2dVertex
 10
74.74697858623009
 20
161.1192371362875
 30
0.0
  0
SEQEND
  5
333
330
330
100
AcDbEntity
  8
Sichtbare Kanten(TC_020513_DIN)
  0
POLYLINE
  5
34B
330
37
100
AcDbEntity
  8
Sichtbare Kanten(TC_020513_DIN)
100
AcDb2dPolyline
 66
     1
 10
0.0
 20
0.0
 30
0.0
 70
   128
  0
VERTEX
  5
34C
330
34B
100
AcDbEntity
  8
Sichtbare Kanten(TC_020513_DIN)
100
AcDbVertex
100
AcDb2dVertex
 10
74.74697858623009
 20
160.6460144037435
 30
0.0
  0
VERTEX
  5
34D
330
34B
100
AcDbEntity
  8
Sichtbare Kanten(TC_020513_DIN)
100
AcDbVertex
100
AcDb2dVertex
 10
74.7411373310421
 20
160.6321229452322
 30
0.0
  0
VERTEX
  5
34F
330
34B
100
AcDbEntity
  8
Sichtbare Kanten(TC_020513_DIN)
100
AcDbVertex
100
AcDb2dVertex
 10
74.73419935039024
 20
160.6164755338857
 30
0.0
  0
VERTEX
  5
350
330
34B
100
AcDbEntity
  8
Sichtbare Kanten(TC_020513_DIN)
100
AcDbVertex
100
AcDb2dVertex
 10
74.72606212428551
 20
160.5991675371359
 30
0.0
  0
VERTEX
  5
351
330
34B
100
AcDbEntity
  8
Sichtbare Kanten(TC_020513_DIN)
100
AcDbVertex
100
AcDb2dVertex
 10
74.71661836436729
 20
160.5802990907858
 30
0.0
  0
VERTEX
  5
352
330
34B
100
AcDbEntity
  8
Sichtbare Kanten(TC_020513_DIN)
100
AcDbVertex
100
AcDb2dVertex
 10
74.7057631664608
 20
160.5599679464529
 30
0.0
  0
VERTEX
  5
353
330
34B
100
AcDbEntity
  8
Sichtbare Kanten(TC_020513_DIN)
100
AcDbVertex
100
AcDb2dVertex
 10
74.69339162639122
 20
160.5382718557546
 30
0.0
  0
VERTEX
  5
354
330
34B
100
AcDbEntity
  8
Sichtbare Kanten(TC_020513_DIN)
100
AcDbVertex
100
AcDb2dVertex
 10
74.67939407161217
 20
160.5153109544943
 30
0.0
  0
VERTEX
  5
355
330
34B
100
AcDbEntity
  8
Sichtbare Kanten(TC_020513_DIN)
100
AcDbVertex
100
AcDb2dVertex
 10
74.66367036632042
 20
160.4911818021963
 30
0.0
  0
VERTEX
  5
356
330
34B
100
AcDbEntity
  8
Sichtbare Kanten(TC_020513_DIN)
100
AcDbVertex
100
AcDb2dVertex
 10
74.64611083796959
 20
160.4659821504782
 30
0.0
  0
VERTEX
  5
357
330
34B
100
AcDbEntity
  8
Sichtbare Kanten(TC_020513_DIN)
100
AcDbVertex
100
AcDb2dVertex
 10
74.62661296657066
 20
160.439813327236
 30
0.0
  0
VERTEX
  5
358
330
34B
100
AcDbEntity
  8
Sichtbare Kanten(TC_020513_DIN)
100
AcDbVertex
100
AcDb2dVertex
 10
74.60506946376304
 20
160.4127706999014
 30
0.0
  0
VERTEX
  5
359
330
34B
100
AcDbEntity
  8
Sichtbare Kanten(TC_020513_DIN)
100
AcDbVertex
100
AcDb2dVertex
 10
74.58185464671593
 20
160.3855242246816
 30
0.0
  0
VERTEX
  5
35A
330
34B
100
AcDbEntity
  8
Sichtbare Kanten(TC_020513_DIN)
100
AcDbVertex
100
AcDb2dVertex
 10
74.55828458598594
 20
160.3596367353628
 30
0.0
  0
VERTEX
  5
35B
330
34B
100
AcDbEntity
  8
Sichtbare Kanten(TC_020513_DIN)
100
AcDbVertex
100
AcDb2dVertex
 10
74.53461915782432
 20
160.3352000230978
 30
0.0
  0
VERTEX
  5
35C
330
34B
100
AcDbEntity
  8
Sichtbare Kanten(TC_020513_DIN)
100
AcDbVertex
100
AcDb2dVertex
 10
74.51105148128013
 20
160.3122236246298
 30
0.0
  0
VERTEX
  5
35D
330
34B
100
AcDbEntity
  8
Sichtbare Kanten(TC_020513_DIN)
100
AcDbVertex
100
AcDb2dVertex
 10
74.48777705958824
 20
160.2907170767019
 30
0.0
  0
VERTEX
  5
35E
330
34B
100
AcDbEntity
  8
Sichtbare Kanten(TC_020513_DIN)
100
AcDbVertex
100
AcDb2dVertex
 10
74.4649913959835
 20
160.2706923002432
 30
0.0
  0
VERTEX
  5
35F
330
34B
100
AcDbEntity
  8
Sichtbare Kanten(TC_020513_DIN)
100
AcDbVertex
100
AcDb2dVertex
 10
74.44288999370079
 20
160.2521564478109
 30
0.0
  0
VERTEX
  5
360
330
34B
100
AcDbEntity
  8
Sichtbare Kanten(TC_020513_DIN)
100
AcDbVertex
100
AcDb2dVertex
 10
74.42166597178917
 20
160.2351202482412
 30
0.0
  0
VERTEX
  5
361
330
34B
100
AcDbEntity
  8
Sichtbare Kanten(TC_020513_DIN)
100
AcDbVertex
100
AcDb2dVertex
 10
74.40151721766929
 20
160.2195944303701
 30
0.0
  0
VERTEX
  5
362
330
34B
100
AcDbEntity
  8
Sichtbare Kanten(TC_020513_DIN)
100
AcDbVertex
100
AcDb2dVertex
 10
74.38263446620445
 20
160.2055885309408
 30
0.0
  0
VERTEX
  5
363
330
34B
100
AcDbEntity
  8
Sichtbare Kanten(TC_020513_DIN)
100
AcDbVertex
100
AcDb2dVertex
 10
74.36521560481529
 20
160.1931132787893
 30
0.0
  0
VERTEX
  5
364
330
34B
100
AcDbEntity
  8
Sichtbare Kanten(TC_020513_DIN)
100
AcDbVertex
100
AcDb2dVertex
 10
74.34945613673668
 20
160.1821770185659
 30
0.0
  0
VERTEX
  5
365
330
34B
100
AcDbEntity
  8
Sichtbare Kanten(TC_020513_DIN)
100
AcDbVertex
100
AcDb2dVertex
 10
74.33555156520347
 20
160.1727904791067
 30
0.0
  0
SEQEND
  5
34E
330
34B
100
AcDbEntity
  8
Sichtbare Kanten(TC_020513_DIN)
  0
POLYLINE
  5
366
330
37
100
AcDbEntity
  8
Sichtbare Kanten(TC_020513_DIN)
100
AcDb2dPolyline
 66
     1
 10
0.0
 20
0.0
 30
0.0
 70
   128
  0
VERTEX
  5
367
330
366
100
AcDbEntity
  8
Sichtbare Kanten(TC_020513_DIN)
100
AcDbVertex
100
AcDb2dVertex
 10
147.2273543529842
 20
160.1727904791067
 30
0.0
  0
VERTEX
  5
368
330
366
100
AcDbEntity
  8
Sichtbare Kanten(TC_020513_DIN)
100
AcDbVertex
100
AcDb2dVertex
 10
147.213449781451
 20
160.1821770185659
 30
0.0
  0
VERTEX
  5
36A
330
366
100
AcDbEntity
  8
Sichtbare Kanten(TC_020513_DIN)
100
AcDbVertex
100
AcDb2dVertex
 10
147.1976903133724
 20
160.1931132787893
 30
0.0
  0
VERTEX
  5
36B
330
366
100
AcDbEntity
  8
Sichtbare Kanten(TC_020513_DIN)
100
AcDbVertex
100
AcDb2dVertex
 10
147.1802714519832
 20
160.2055885309408
 30
0.0
  0
VERTEX
  5
36C
330
366
100
AcDbEntity
  8
Sichtbare Kanten(TC_020513_DIN)
100
AcDbVertex
100
AcDb2dVertex
 10
147.1613887005184
 20
160.2195944303701
 30
0.0
  0
VERTEX
  5
36D
330
366
100
AcDbEntity
  8
Sichtbare Kanten(TC_020513_DIN)
100
AcDbVertex
100
AcDb2dVertex
 10
147.1412399463985
 20
160.2351202482412
 30
0.0
  0
VERTEX
  5
36E
330
366
100
AcDbEntity
  8
Sichtbare Kanten(TC_020513_DIN)
100
AcDbVertex
100
AcDb2dVertex
 10
147.1200159244869
 20
160.2521564478109
 30
0.0
  0
VERTEX
  5
36F
330
366
100
AcDbEntity
  8
Sichtbare Kanten(TC_020513_DIN)
100
AcDbVertex
100
AcDb2dVertex
 10
147.0979145222042
 20
160.2706923002432
 30
0.0
  0
VERTEX
  5
370
330
366
100
AcDbEntity
  8
Sichtbare Kanten(TC_020513_DIN)
100
AcDbVertex
100
AcDb2dVertex
 10
147.0751288585995
 20
160.2907170767019
 30
0.0
  0
VERTEX
  5
371
330
366
100
AcDbEntity
  8
Sichtbare Kanten(TC_020513_DIN)
100
AcDbVertex
100
AcDb2dVertex
 10
147.0518544369076
 20
160.3122236246298
 30
0.0
  0
VERTEX
  5
372
330
366
100
AcDbEntity
  8
Sichtbare Kanten(TC_020513_DIN)
100
AcDbVertex
100
AcDb2dVertex
 10
147.0282867603634
 20
160.3352000230978
 30
0.0
  0
VERTEX
  5
373
330
366
100
AcDbEntity
  8
Sichtbare Kanten(TC_020513_DIN)
100
AcDbVertex
100
AcDb2dVertex
 10
147.0046213322017
 20
160.3596367353628
 30
0.0
  0
VERTEX
  5
374
330
366
100
AcDbEntity
  8
Sichtbare Kanten(TC_020513_DIN)
100
AcDbVertex
100
AcDb2dVertex
 10
146.9810512714718
 20
160.3855242246816
 30
0.0
  0
VERTEX
  5
375
330
366
100
AcDbEntity
  8
Sichtbare Kanten(TC_020513_DIN)
100
AcDbVertex
100
AcDb2dVertex
 10
146.9578364544246
 20
160.4127706999014
 30
0.0
  0
VERTEX
  5
376
330
366
100
AcDbEntity
  8
Sichtbare Kanten(TC_020513_DIN)
100
AcDbVertex
100
AcDb2dVertex
 10
146.936292951617
 20
160.439813327236
 30
0.0
  0
VERTEX
  5
377
330
366
100
AcDbEntity
  8
Sichtbare Kanten(TC_020513_DIN)
100
AcDbVertex
100
AcDb2dVertex
 10
146.9167950802181
 20
160.4659821504782
 30
0.0
  0
VERTEX
  5
378
330
366
100
AcDbEntity
  8
Sichtbare Kanten(TC_020513_DIN)
100
AcDbVertex
100
AcDb2dVertex
 10
146.8992355518673
 20
160.4911818021963
 30
0.0
  0
VERTEX
  5
379
330
366
100
AcDbEntity
  8
Sichtbare Kanten(TC_020513_DIN)
100
AcDbVertex
100
AcDb2dVertex
 10
146.8835118465755
 20
160.5153109544943
 30
0.0
  0
VERTEX
  5
37A
330
366
100
AcDbEntity
  8
Sichtbare Kanten(TC_020513_DIN)
100
AcDbVertex
100
AcDb2dVertex
 10
146.8695142917965
 20
160.5382718557546
 30
0.0
  0
VERTEX
  5
37B
330
366
100
AcDbEntity
  8
Sichtbare Kanten(TC_020513_DIN)
100
AcDbVertex
100
AcDb2dVertex
 10
146.8571427517269
 20
160.5599679464529
 30
0.0
  0
VERTEX
  5
37C
330
366
100
AcDbEntity
  8
Sichtbare Kanten(TC_020513_DIN)
100
AcDbVertex
100
AcDb2dVertex
 10
146.8462875538204
 20
160.5802990907858
 30
0.0
  0
VERTEX
  5
37D
330
366
100
AcDbEntity
  8
Sichtbare Kanten(TC_020513_DIN)
100
AcDbVertex
100
AcDb2dVertex
 10
146.8368437939022
 20
160.5991675371359
 30
0.0
  0
VERTEX
  5
37E
330
366
100
AcDbEntity
  8
Sichtbare Kanten(TC_020513_DIN)
100
AcDbVertex
100
AcDb2dVertex
 10
146.8287065677975
 20
160.6164755338857
 30
0.0
  0
VERTEX
  5
37F
330
366
100
AcDbEntity
  8
Sichtbare Kanten(TC_020513_DIN)
100
AcDbVertex
100
AcDb2dVertex
 10
146.8217685871456
 20
160.6321229452322
 30
0.0
  0
VERTEX
  5
380
330
366
100
AcDbEntity
  8
Sichtbare Kanten(TC_020513_DIN)
100
AcDbVertex
100
AcDb2dVertex
 10
146.8159273319576
 20
160.6460144037435
 30
0.0
  0
SEQEND
  5
369
330
366
100
AcDbEntity
  8
Sichtbare Kanten(TC_020513_DIN)
  0
POLYLINE
  5
381
330
37
100
AcDbEntity
  8
Sichtbare Kanten(TC_020513_DIN)
100
AcDb2dPolyline
 66
     1
 10
0.0
 20
0.0
 30
0.0
 70
   128
  0
VERTEX
  5
382
330
381
100
AcDbEntity
  8
Sichtbare Kanten(TC_020513_DIN)
100
AcDbVertex
100
AcDb2dVertex
 10
146.8159273319576
 20
160.6460144037435
 30
0.0
  0
VERTEX
  5
383
330
381
100
AcDbEntity
  8
Sichtbare Kanten(TC_020513_DIN)
100
AcDbVertex
100
AcDb2dVertex
 10
146.7882707767818
 20
160.7128216737936
 30
0.0
  0
VERTEX
  5
385
330
381
100
AcDbEntity
  8
Sichtbare Kanten(TC_020513_DIN)
100
AcDbVertex
100
AcDb2dVertex
 10
146.7606690578792
 20
160.7780851835439
 30
0.0
  0
VERTEX
  5
386
330
381
100
AcDbEntity
  8
Sichtbare Kanten(TC_020513_DIN)
100
AcDbVertex
100
AcDb2dVertex
 10
146.7331054859493
 20
160.8416845316122
 30
0.0
  0
VERTEX
  5
387
330
381
100
AcDbEntity
  8
Sichtbare Kanten(TC_020513_DIN)
100
AcDbVertex
100
AcDb2dVertex
 10
146.7055609875057
 20
160.9035005087087
 30
0.0
  0
VERTEX
  5
388
330
381
100
AcDbEntity
  8
Sichtbare Kanten(TC_020513_DIN)
100
AcDbVertex
100
AcDb2dVertex
 10
146.6780188732479
 20
160.9634139055441
 30
0.0
  0
VERTEX
  5
389
330
381
100
AcDbEntity
  8
Sichtbare Kanten(TC_020513_DIN)
100
AcDbVertex
100
AcDb2dVertex
 10
146.6504600696895
 20
161.0213055128286
 30
0.0
  0
VERTEX
  5
38A
330
381
100
AcDbEntity
  8
Sichtbare Kanten(TC_020513_DIN)
100
AcDbVertex
100
AcDb2dVertex
 10
146.6228655033443
 20
161.0770561212728
 30
0.0
  0
VERTEX
  5
38B
330
381
100
AcDbEntity
  8
Sichtbare Kanten(TC_020513_DIN)
100
AcDbVertex
100
AcDb2dVertex
 10
146.5952208690975
 20
161.1305453294943
 30
0.0
  0
VERTEX
  5
38C
330
381
100
AcDbEntity
  8
Sichtbare Kanten(TC_020513_DIN)
100
AcDbVertex
100
AcDb2dVertex
 10
146.5675547771786
 20
161.1815633291433
 30
0.0
  0
VERTEX
  5
38D
330
381
100
AcDbEntity
  8
Sichtbare Kanten(TC_020513_DIN)
100
AcDbVertex
100
AcDb2dVertex
 10
146.5399459057186
 20
161.2298407072256
 30
0.0
  0
VERTEX
  5
38E
330
381
100
AcDbEntity
  8
Sichtbare Kanten(TC_020513_DIN)
100
AcDbVertex
100
AcDb2dVertex
 10
146.5123775654171
 20
161.2752928251455
 30
0.0
  0
VERTEX
  5
38F
330
381
100
AcDbEntity
  8
Sichtbare Kanten(TC_020513_DIN)
100
AcDbVertex
100
AcDb2dVertex
 10
146.4848306827877
 20
161.317841004772
 30
0.0
  0
VERTEX
  5
390
330
381
100
AcDbEntity
  8
Sichtbare Kanten(TC_020513_DIN)
100
AcDbVertex
100
AcDb2dVertex
 10
146.4572885685299
 20
161.357405375881
 30
0.0
  0
VERTEX
  5
391
330
381
100
AcDbEntity
  8
Sichtbare Kanten(TC_020513_DIN)
100
AcDbVertex
100
AcDb2dVertex
 10
146.4297321491573
 20
161.3939084524343
 30
0.0
  0
VERTEX
  5
392
330
381
100
AcDbEntity
  8
Sichtbare Kanten(TC_020513_DIN)
100
AcDbVertex
100
AcDb2dVertex
 10
146.4021471195553
 20
161.4272691721151
 30
0.0
  0
VERTEX
  5
393
330
381
100
AcDbEntity
  8
Sichtbare Kanten(TC_020513_DIN)
100
AcDbVertex
100
AcDb2dVertex
 10
146.3745120220516
 20
161.4574100488851
 30
0.0
  0
VERTEX
  5
394
330
381
100
AcDbEntity
  8
Sichtbare Kanten(TC_020513_DIN)
100
AcDbVertex
100
AcDb2dVertex
 10
146.3468387775753
 20
161.4842226022909
 30
0.0
  0
VERTEX
  5
395
330
381
100
AcDbEntity
  8
Sichtbare Kanten(TC_020513_DIN)
100
AcDbVertex
100
AcDb2dVertex
 10
146.3192156010006
 20
161.5075566286276
 30
0.0
  0
VERTEX
  5
396
330
381
100
AcDbEntity
  8
Sichtbare Kanten(TC_020513_DIN)
100
AcDbVertex
100
AcDb2dVertex
 10
146.2916329555843
 20
161.5273751730154
 30
0.0
  0
VERTEX
  5
397
330
381
100
AcDbEntity
  8
Sichtbare Kanten(TC_020513_DIN)
100
AcDbVertex
100
AcDb2dVertex
 10
146.2640693836544
 20
161.5436520094107
 30
0.0
  0
VERTEX
  5
398
330
381
100
AcDbEntity
  8
Sichtbare Kanten(TC_020513_DIN)
100
AcDbVertex
100
AcDb2dVertex
 10
146.2365081959102
 20
161.5563597196768
 30
0.0
  0
VERTEX
  5
399
330
381
100
AcDbEntity
  8
Sichtbare Kanten(TC_020513_DIN)
100
AcDbVertex
100
AcDb2dVertex
 10
146.2089327030513
 20
161.5654696935842
 30
0.0
  0
VERTEX
  5
39A
330
381
100
AcDbEntity
  8
Sichtbare Kanten(TC_020513_DIN)
100
AcDbVertex
100
AcDb2dVertex
 10
146.1813238315914
 20
161.5709557050893
 30
0.0
  0
VERTEX
  5
39B
330
381
100
AcDbEntity
  8
Sichtbare Kanten(TC_020513_DIN)
100
AcDbVertex
100
AcDb2dVertex
 10
146.1536648922298
 20
161.5727903360555
 30
0.0
  0
SEQEND
  5
384
330
381
100
AcDbEntity
  8
Sichtbare Kanten(TC_020513_DIN)
  0
POLYLINE
  5
39C
330
37
100
AcDbEntity
  8
Sichtbare Kanten(TC_020513_DIN)
100
AcDb2dPolyline
 66
     1
 10
0.0
 20
0.0
 30
0.0
 70
   128
  0
VERTEX
  5
39D
330
39C
100
AcDbEntity
  8
Sichtbare Kanten(TC_020513_DIN)
100
AcDbVertex
100
AcDb2dVertex
 10
146.8159273319576
 20
161.1192371362875
 30
0.0
  0
VERTEX
  5
39E
330
39C
100
AcDbEntity
  8
Sichtbare Kanten(TC_020513_DIN)
100
AcDbVertex
100
AcDb2dVertex
 10
146.8328335934017
 20
161.0425652975271
 30
0.0
  0
VERTEX
  5
3A0
330
39C
100
AcDbEntity
  8
Sichtbare Kanten(TC_020513_DIN)
100
AcDbVertex
100
AcDb2dVertex
 10
146.8509367161129
 20
160.9703208917806
 30
0.0
  0
VERTEX
  5
3A1
330
39C
100
AcDbEntity
  8
Sichtbare Kanten(TC_020513_DIN)
100
AcDbVertex
100
AcDb2dVertex
 10
146.8699196033809
 20
160.9025241846273
 30
0.0
  0
VERTEX
  5
3A2
330
39C
100
AcDbEntity
  8
Sichtbare Kanten(TC_020513_DIN)
100
AcDbVertex
100
AcDb2dVertex
 10
146.8894675426815
 20
160.8391918653677
 30
0.0
  0
VERTEX
  5
3A3
330
39C
100
AcDbEntity
  8
Sichtbare Kanten(TC_020513_DIN)
100
AcDbVertex
100
AcDb2dVertex
 10
146.9092586689327
 20
160.7803453916738
 30
0.0
  0
VERTEX
  5
3A4
330
39C
100
AcDbEntity
  8
Sichtbare Kanten(TC_020513_DIN)
100
AcDbVertex
100
AcDb2dVertex
 10
146.928980653796
 20
160.726005029125
 30
0.0
  0
VERTEX
  5
3A5
330
39C
100
AcDbEntity
  8
Sichtbare Kanten(TC_020513_DIN)
100
AcDbVertex
100
AcDb2dVertex
 10
146.9483164005611
 20
160.6761886591146
 30
0.0
  0
VERTEX
  5
3A6
330
39C
100
AcDbEntity
  8
Sichtbare Kanten(TC_020513_DIN)
100
AcDbVertex
100
AcDb2dVertex
 10
146.9669631176326
 20
160.630880784435
 30
0.0
  0
VERTEX
  5
3A7
330
39C
100
AcDbEntity
  8
Sichtbare Kanten(TC_020513_DIN)
100
AcDbVertex
100
AcDb2dVertex
 10
146.985485857043
 20
160.5883004183004
 30
0.0
  0
VERTEX
  5
3A8
330
39C
100
AcDbEntity
  8
Sichtbare Kanten(TC_020513_DIN)
100
AcDbVertex
100
AcDb2dVertex
 10
147.0042160206173
 20
160.5474557394216
 30
0.0
  0
VERTEX
  5
3A9
330
39C
100
AcDbEntity
  8
Sichtbare Kanten(TC_020513_DIN)
100
AcDbVertex
100
AcDb2dVertex
 10
147.0230487041805
 20
160.5083753580282
 30
0.0
  0
VERTEX
  5
3AA
330
39C
100
AcDbEntity
  8
Sichtbare Kanten(TC_020513_DIN)
100
AcDbVertex
100
AcDb2dVertex
 10
147.0418718510006
 20
160.4710843080709
 30
0.0
  0
VERTEX
  5
3AB
330
39C
100
AcDbEntity
  8
Sichtbare Kanten(TC_020513_DIN)
100
AcDbVertex
100
AcDb2dVertex
 10
147.0605781727169
 20
160.4356100076864
 30
0.0
  0
VERTEX
  5
3AC
330
39C
100
AcDbEntity
  8
Sichtbare Kanten(TC_020513_DIN)
100
AcDbVertex
100
AcDb2dVertex
 10
147.079057996783
 20
160.4019774908254
 30
0.0
  0
VERTEX
  5
3AD
330
39C
100
AcDbEntity
  8
Sichtbare Kanten(TC_020513_DIN)
100
AcDbVertex
100
AcDb2dVertex
 10
147.0972016506527
 20
160.3702129835317
 30
0.0
  0
VERTEX
  5
3AE
330
39C
100
AcDbEntity
  8
Sichtbare Kanten(TC_020513_DIN)
100
AcDbVertex
100
AcDb2dVertex
 10
147.1148994617794
 20
160.3403450960348
 30
0.0
  0
VERTEX
  5
3AF
330
39C
100
AcDbEntity
  8
Sichtbare Kanten(TC_020513_DIN)
100
AcDbVertex
100
AcDb2dVertex
 10
147.1320441418026
 20
160.3123976701925
 30
0.0
  0
VERTEX
  5
3B0
330
39C
100
AcDbEntity
  8
Sichtbare Kanten(TC_020513_DIN)
100
AcDbVertex
100
AcDb2dVertex
 10
147.1485236339901
 20
160.2863993162344
 30
0.0
  0
VERTEX
  5
3B1
330
39C
100
AcDbEntity
  8
Sichtbare Kanten(TC_020513_DIN)
100
AcDbVertex
100
AcDb2dVertex
 10
147.1642306499813
 20
160.2623750681112
 30
0.0
  0
VERTEX
  5
3B2
330
39C
100
AcDbEntity
  8
Sichtbare Kanten(TC_020513_DIN)
100
AcDbVertex
100
AcDb2dVertex
 10
147.1790555172298
 20
160.2403511518667
 30
0.0
  0
VERTEX
  5
3B3
330
39C
100
AcDbEntity
  8
Sichtbare Kanten(TC_020513_DIN)
100
AcDbVertex
100
AcDb2dVertex
 10
147.1928909473751
 20
160.2203537935445
 30
0.0
  0
VERTEX
  5
3B4
330
39C
100
AcDbEntity
  8
Sichtbare Kanten(TC_020513_DIN)
100
AcDbVertex
100
AcDb2dVertex
 10
147.2056248836849
 20
160.2024116033743
 30
0.0
  0
VERTEX
  5
3B5
330
39C
100
AcDbEntity
  8
Sichtbare Kanten(TC_020513_DIN)
100
AcDbVertex
100
AcDb2dVertex
 10
147.2171500377987
 20
160.1865472311208
 30
0.0
  0
VERTEX
  5
3B6
330
39C
100
AcDbEntity
  8
Sichtbare Kanten(TC_020513_DIN)
100
AcDbVertex
100
AcDb2dVertex
 10
147.2273543529842
 20
160.1727904791067
 30
0.0
  0
SEQEND
  5
39F
330
39C
100
AcDbEntity
  8
Sichtbare Kanten(TC_020513_DIN)
  0
POLYLINE
  5
3B7
330
37
100
AcDbEntity
  8
Sichtbare Kanten(TC_020513_DIN)
100
AcDb2dPolyline
 66
     1
 10
0.0
 20
0.0
 30
0.0
 70
   128
  0
VERTEX
  5
3B8
330
3B7
100
AcDbEntity
  8
Sichtbare Kanten(TC_020513_DIN)
100
AcDbVertex
100
AcDb2dVertex
 10
146.1536648922298
 20
162.9727901930044
 30
0.0
  0
VERTEX
  5
3B9
330
3B7
100
AcDbEntity
  8
Sichtbare Kanten(TC_020513_DIN)
100
AcDbVertex
100
AcDb2dVertex
 10
146.1812952213619
 20
162.9691280836294
 30
0.0
  0
VERTEX
  5
3BB
330
3B7
100
AcDbEntity
  8
Sichtbare Kanten(TC_020513_DIN)
100
AcDbVertex
100
AcDb2dVertex
 10
146.2088754825924
 20
162.958179902477
 30
0.0
  0
VERTEX
  5
3BC
330
3B7
100
AcDbEntity
  8
Sichtbare Kanten(TC_020513_DIN)
100
AcDbVertex
100
AcDb2dVertex
 10
146.236419981036
 20
162.9399981016348
 30
0.0
  0
VERTEX
  5
3BD
330
3B7
100
AcDbEntity
  8
Sichtbare Kanten(TC_020513_DIN)
100
AcDbVertex
100
AcDb2dVertex
 10
146.263947790179
 20
162.9146399015615
 30
0.0
  0
VERTEX
  5
3BE
330
3B7
100
AcDbEntity
  8
Sichtbare Kanten(TC_020513_DIN)
100
AcDbVertex
100
AcDb2dVertex
 10
146.2914803676937
 20
162.8821601385305
 30
0.0
  0
VERTEX
  5
3BF
330
3B7
100
AcDbEntity
  8
Sichtbare Kanten(TC_020513_DIN)
100
AcDbVertex
100
AcDb2dVertex
 10
146.3190296345089
 20
162.842612456722
 30
0.0
  0
VERTEX
  5
3C0
330
3B7
100
AcDbEntity
  8
Sichtbare Kanten(TC_020513_DIN)
100
AcDbVertex
100
AcDb2dVertex
 10
146.3466194324825
 20
162.796055268688
 30
0.0
  0
VERTEX
  5
3C1
330
3B7
100
AcDbEntity
  8
Sichtbare Kanten(TC_020513_DIN)
100
AcDbVertex
100
AcDb2dVertex
 10
146.3742592983577
 20
162.7425481790731
 30
0.0
  0
VERTEX
  5
3C2
330
3B7
100
AcDbEntity
  8
Sichtbare Kanten(TC_020513_DIN)
100
AcDbVertex
100
AcDb2dVertex
 10
146.4018777065609
 20
162.6823689455221
 30
0.0
  0
VERTEX
  5
3C3
330
3B7
100
AcDbEntity
  8
Sichtbare Kanten(TC_020513_DIN)
100
AcDbVertex
100
AcDb2dVertex
 10
146.4294460468624
 20
162.6157524103353
 30
0.0
  0
VERTEX
  5
3C4
330
3B7
100
AcDbEntity
  8
Sichtbare Kanten(TC_020513_DIN)
100
AcDbVertex
100
AcDb2dVertex
 10
146.4569857769344
 20
162.5428547376821
 30
0.0
  0
VERTEX
  5
3C5
330
3B7
100
AcDbEntity
  8
Sichtbare Kanten(TC_020513_DIN)
100
AcDbVertex
100
AcDb2dVertex
 10
146.4845135860775
 20
162.4638332838247
 30
0.0
  0
VERTEX
  5
3C6
330
3B7
100
AcDbEntity
  8
Sichtbare Kanten(TC_020513_DIN)
100
AcDbVertex
100
AcDb2dVertex
 10
146.5120485477779
 20
162.3788430208395
 30
0.0
  0
VERTEX
  5
3C7
330
3B7
100
AcDbEntity
  8
Sichtbare Kanten(TC_020513_DIN)
100
AcDbVertex
100
AcDb2dVertex
 10
146.5396073513363
 20
162.2880436891744
 30
0.0
  0
VERTEX
  5
3C8
330
3B7
100
AcDbEntity
  8
Sichtbare Kanten(TC_020513_DIN)
100
AcDbVertex
100
AcDb2dVertex
 10
146.567206686053
 20
162.191590260906
 30
0.0
  0
VERTEX
  5
3C9
330
3B7
100
AcDbEntity
  8
Sichtbare Kanten(TC_020513_DIN)
100
AcDbVertex
100
AcDb2dVertex
 10
146.5948537044857
 20
162.0896830076406
 30
0.0
  0
VERTEX
  5
3CA
330
3B7
100
AcDbEntity
  8
Sichtbare Kanten(TC_020513_DIN)
100
AcDbVertex
100
AcDb2dVertex
 10
146.6224888019893
 20
161.9828106874654
 30
0.0
  0
VERTEX
  5
3CB
330
3B7
100
AcDbEntity
  8
Sichtbare Kanten(TC_020513_DIN)
100
AcDbVertex
100
AcDb2dVertex
 10
146.6501119785641
 20
161.8712510580252
 30
0.0
  0
VERTEX
  5
3CC
330
3B7
100
AcDbEntity
  8
Sichtbare Kanten(TC_020513_DIN)
100
AcDbVertex
100
AcDb2dVertex
 10
146.6777399235103
 20
161.7552246565054
 30
0.0
  0
VERTEX
  5
3CD
330
3B7
100
AcDbEntity
  8
Sichtbare Kanten(TC_020513_DIN)
100
AcDbVertex
100
AcDb2dVertex
 10
146.7053917103145
 20
161.634961556835
 30
0.0
  0
VERTEX
  5
3CE
330
3B7
100
AcDbEntity
  8
Sichtbare Kanten(TC_020513_DIN)
100
AcDbVertex
100
AcDb2dVertex
 10
146.7330315761898
 20
161.5109195226858
 30
0.0
  0
VERTEX
  5
3CF
330
3B7
100
AcDbEntity
  8
Sichtbare Kanten(TC_020513_DIN)
100
AcDbVertex
100
AcDb2dVertex
 10
146.7606547527645
 20
161.3834490293691
 30
0.0
  0
VERTEX
  5
3D0
330
3B7
100
AcDbEntity
  8
Sichtbare Kanten(TC_020513_DIN)
100
AcDbVertex
100
AcDb2dVertex
 10
146.788280313525
 20
161.2528039926717
 30
0.0
  0
VERTEX
  5
3D1
330
3B7
100
AcDbEntity
  8
Sichtbare Kanten(TC_020513_DIN)
100
AcDbVertex
100
AcDb2dVertex
 10
146.8159273319576
 20
161.1192371362875
 30
0.0
  0
SEQEND
  5
3BA
330
3B7
100
AcDbEntity
  8
Sichtbare Kanten(TC_020513_DIN)
  0
LINE
  5
3D2
330
37
100
AcDbEntity
  8
Sichtbare Kanten(TC_020513_DIN)
100
AcDbLine
 10
146.153666033576
 20
162.1887917856541
 30
0.0
 11
146.153666033576
 21
162.9727906553735
 31
0.0
  0
LINE
  5
3D3
330
37
100
AcDbEntity
  8
Sichtbare Kanten(TC_020513_DIN)
100
AcDbLine
 10
146.153666033576
 20
161.5727906553735
 30
0.0
 11
146.153666033576
 21
162.1887917856541
 31
0.0
  0
POLYLINE
  5
3D4
330
37
100
AcDbEntity
  8
Sichtbare Kanten(TC_020513_DIN)
100
AcDb2dPolyline
 66
     1
 10
0.0
 20
0.0
 30
0.0
 70
   128
  0
VERTEX
  5
3D5
330
3D4
100
AcDbEntity
  8
Sichtbare Kanten(TC_020513_DIN)
100
AcDbVertex
100
AcDb2dVertex
 10
147.4192360096309
 20
149.6043105835149
 30
0.0
  0
VERTEX
  5
3D6
330
3D4
100
AcDbEntity
  8
Sichtbare Kanten(TC_020513_DIN)
100
AcDbVertex
100
AcDb2dVertex
 10
147.4290636234615
 20
149.6274926180074
 30
0.0
  0
VERTEX
  5
3D8
330
3D4
100
AcDbEntity
  8
Sichtbare Kanten(TC_020513_DIN)
100
AcDbVertex
100
AcDb2dVertex
 10
147.4388888531063
 20
149.6508534664342
 30
0.0
  0
VERTEX
  5
3D9
330
3D4
100
AcDbEntity
  8
Sichtbare Kanten(TC_020513_DIN)
100
AcDbVertex
100
AcDb2dVertex
 10
147.4487093143795
 20
149.6743865722845
 30
0.0
  0
VERTEX
  5
3DA
330
3D4
100
AcDbEntity
  8
Sichtbare Kanten(TC_020513_DIN)
100
AcDbVertex
100
AcDb2dVertex
 10
147.4585273914669
 20
149.6980859750936
 30
0.0
  0
VERTEX
  5
3DB
330
3D4
100
AcDbEntity
  8
Sichtbare Kanten(TC_020513_DIN)
100
AcDbVertex
100
AcDb2dVertex
 10
147.4683454685543
 20
149.7219463104436
 30
0.0
  0
VERTEX
  5
3DC
330
3D4
100
AcDbEntity
  8
Sichtbare Kanten(TC_020513_DIN)
100
AcDbVertex
100
AcDb2dVertex
 10
147.4781611614559
 20
149.7459610218236
 30
0.0
  0
VERTEX
  5
3DD
330
3D4
100
AcDbEntity
  8
Sichtbare Kanten(TC_020513_DIN)
100
AcDbVertex
100
AcDb2dVertex
 10
147.4879768543575
 20
149.7701241487691
 30
0.0
  0
VERTEX
  5
3DE
330
3D4
100
AcDbEntity
  8
Sichtbare Kanten(TC_020513_DIN)
100
AcDbVertex
100
AcDb2dVertex
 10
147.4977925472591
 20
149.7944303268621
 30
0.0
  0
VERTEX
  5
3DF
330
3D4
100
AcDbEntity
  8
Sichtbare Kanten(TC_020513_DIN)
100
AcDbVertex
100
AcDb2dVertex
 10
147.5076130085323
 20
149.8188729995916
 30
0.0
  0
VERTEX
  5
3E0
330
3D4
100
AcDbEntity
  8
Sichtbare Kanten(TC_020513_DIN)
100
AcDbVertex
100
AcDb2dVertex
 10
147.5174334698055
 20
149.8434462064931
 30
0.0
  0
VERTEX
  5
3E1
330
3D4
100
AcDbEntity
  8
Sichtbare Kanten(TC_020513_DIN)
100
AcDbVertex
100
AcDb2dVertex
 10
147.5272563152645
 20
149.8681439871023
 30
0.0
  0
VERTEX
  5
3E2
330
3D4
100
AcDbEntity
  8
Sichtbare Kanten(TC_020513_DIN)
100
AcDbVertex
100
AcDb2dVertex
 10
147.5370863132808
 20
149.8929609770009
 30
0.0
  0
VERTEX
  5
3E3
330
3D4
100
AcDbEntity
  8
Sichtbare Kanten(TC_020513_DIN)
100
AcDbVertex
100
AcDb2dVertex
 10
147.5469139271114
 20
149.9178781027028
 30
0.0
  0
VERTEX
  5
3E4
330
3D4
100
AcDbEntity
  8
Sichtbare Kanten(TC_020513_DIN)
100
AcDbVertex
100
AcDb2dVertex
 10
147.5567391567562
 20
149.9428762907216
 30
0.0
  0
VERTEX
  5
3E5
330
3D4
100
AcDbEntity
  8
Sichtbare Kanten(TC_020513_DIN)
100
AcDbVertex
100
AcDb2dVertex
 10
147.5665596180294
 20
149.9679507726858
 30
0.0
  0
VERTEX
  5
3E6
330
3D4
100
AcDbEntity
  8
Sichtbare Kanten(TC_020513_DIN)
100
AcDbVertex
100
AcDb2dVertex
 10
147.5763776951168
 20
149.9930937999914
 30
0.0
  0
VERTEX
  5
3E7
330
3D4
100
AcDbEntity
  8
Sichtbare Kanten(TC_020513_DIN)
100
AcDbVertex
100
AcDb2dVertex
 10
147.5861933880184
 20
150.0183000082204
 30
0.0
  0
VERTEX
  5
3E8
330
3D4
100
AcDbEntity
  8
Sichtbare Kanten(TC_020513_DIN)
100
AcDbVertex
100
AcDb2dVertex
 10
147.5960114651058
 20
150.043562840862
 30
0.0
  0
VERTEX
  5
3E9
330
3D4
100
AcDbEntity
  8
Sichtbare Kanten(TC_020513_DIN)
100
AcDbVertex
100
AcDb2dVertex
 10
147.6058271580074
 20
150.0688757414052
 30
0.0
  0
VERTEX
  5
3EA
330
3D4
100
AcDbEntity
  8
Sichtbare Kanten(TC_020513_DIN)
100
AcDbVertex
100
AcDb2dVertex
 10
147.615642850909
 20
150.0942327493856
 30
0.0
  0
VERTEX
  5
3EB
330
3D4
100
AcDbEntity
  8
Sichtbare Kanten(TC_020513_DIN)
100
AcDbVertex
100
AcDb2dVertex
 10
147.6254633121822
 20
150.1196279043386
 30
0.0
  0
VERTEX
  5
3EC
330
3D4
100
AcDbEntity
  8
Sichtbare Kanten(TC_020513_DIN)
100
AcDbVertex
100
AcDb2dVertex
 10
147.6352837734554
 20
150.1450540537069
 30
0.0
  0
VERTEX
  5
3ED
330
3D4
100
AcDbEntity
  8
Sichtbare Kanten(TC_020513_DIN)
100
AcDbVertex
100
AcDb2dVertex
 10
147.6451066189144
 20
150.1705058330724
 30
0.0
  0
VERTEX
  5
3EE
330
3D4
100
AcDbEntity
  8
Sichtbare Kanten(TC_020513_DIN)
100
AcDbVertex
100
AcDb2dVertex
 10
147.6549366169307
 20
150.1959760898778
 30
0.0
  0
SEQEND
  5
3D7
330
3D4
100
AcDbEntity
  8
Sichtbare Kanten(TC_020513_DIN)
  0
POLYLINE
  5
3EF
330
37
100
AcDbEntity
  8
Sichtbare Kanten(TC_020513_DIN)
100
AcDb2dPolyline
 66
     1
 10
0.0
 20
0.0
 30
0.0
 70
   128
  0
VERTEX
  5
3F0
330
3EF
100
AcDbEntity
  8
Sichtbare Kanten(TC_020513_DIN)
100
AcDbVertex
100
AcDb2dVertex
 10
147.6549366169307
 20
150.1959760898778
 30
0.0
  0
VERTEX
  5
3F1
330
3EF
100
AcDbEntity
  8
Sichtbare Kanten(TC_020513_DIN)
100
AcDbVertex
100
AcDb2dVertex
 10
147.6451066189144
 20
150.1450349802206
 30
0.0
  0
VERTEX
  5
3F3
330
3EF
100
AcDbEntity
  8
Sichtbare Kanten(TC_020513_DIN)
100
AcDbVertex
100
AcDb2dVertex
 10
147.6352837734554
 20
150.0941320175359
 30
0.0
  0
VERTEX
  5
3F4
330
3EF
100
AcDbEntity
  8
Sichtbare Kanten(TC_020513_DIN)
100
AcDbVertex
100
AcDb2dVertex
 10
147.6254633121822
 20
150.0432791227529
 30
0.0
  0
VERTEX
  5
3F5
330
3EF
100
AcDbEntity
  8
Sichtbare Kanten(TC_020513_DIN)
100
AcDbVertex
100
AcDb2dVertex
 10
147.615642850909
 20
149.9924894088933
 30
0.0
  0
VERTEX
  5
3F6
330
3EF
100
AcDbEntity
  8
Sichtbare Kanten(TC_020513_DIN)
100
AcDbVertex
100
AcDb2dVertex
 10
147.6058271580074
 20
149.9417753929327
 30
0.0
  0
VERTEX
  5
3F7
330
3EF
100
AcDbEntity
  8
Sichtbare Kanten(TC_020513_DIN)
100
AcDbVertex
100
AcDb2dVertex
 10
147.5960114651058
 20
149.8911489957998
 30
0.0
  0
VERTEX
  5
3F8
330
3EF
100
AcDbEntity
  8
Sichtbare Kanten(TC_020513_DIN)
100
AcDbVertex
100
AcDb2dVertex
 10
147.5861933880184
 20
149.8406233305166
 30
0.0
  0
VERTEX
  5
3F9
330
3EF
100
AcDbEntity
  8
Sichtbare Kanten(TC_020513_DIN)
100
AcDbVertex
100
AcDb2dVertex
 10
147.5763776951168
 20
149.7902115101049
 30
0.0
  0
VERTEX
  5
3FA
330
3EF
100
AcDbEntity
  8
Sichtbare Kanten(TC_020513_DIN)
100
AcDbVertex
100
AcDb2dVertex
 10
147.5665596180294
 20
149.7399248594472
 30
0.0
  0
VERTEX
  5
3FB
330
3EF
100
AcDbEntity
  8
Sichtbare Kanten(TC_020513_DIN)
100
AcDbVertex
100
AcDb2dVertex
 10
147.5567391567562
 20
149.6897764915655
 30
0.0
  0
VERTEX
  5
3FC
330
3EF
100
AcDbEntity
  8
Sichtbare Kanten(TC_020513_DIN)
100
AcDbVertex
100
AcDb2dVertex
 10
147.5469139271114
 20
149.6397795194814
 30
0.0
  0
VERTEX
  5
3FD
330
3EF
100
AcDbEntity
  8
Sichtbare Kanten(TC_020513_DIN)
100
AcDbVertex
100
AcDb2dVertex
 10
147.5370863132808
 20
149.5899452680776
 30
0.0
  0
VERTEX
  5
3FE
330
3EF
100
AcDbEntity
  8
Sichtbare Kanten(TC_020513_DIN)
100
AcDbVertex
100
AcDb2dVertex
 10
147.5272563152645
 20
149.5403118843267
 30
0.0
  0
VERTEX
  5
3FF
330
3EF
100
AcDbEntity
  8
Sichtbare Kanten(TC_020513_DIN)
100
AcDbVertex
100
AcDb2dVertex
 10
147.5174334698055
 20
149.4909163231084
 30
0.0
  0
VERTEX
  5
400
330
3EF
100
AcDbEntity
  8
Sichtbare Kanten(TC_020513_DIN)
100
AcDbVertex
100
AcDb2dVertex
 10
147.5076130085323
 20
149.4417699093053
 30
0.0
  0
VERTEX
  5
401
330
3EF
100
AcDbEntity
  8
Sichtbare Kanten(TC_020513_DIN)
100
AcDbVertex
100
AcDb2dVertex
 10
147.4977925472591
 20
149.3928845638463
 30
0.0
  0
VERTEX
  5
402
330
3EF
100
AcDbEntity
  8
Sichtbare Kanten(TC_020513_DIN)
100
AcDbVertex
100
AcDb2dVertex
 10
147.4879768543575
 20
149.3442725056836
 30
0.0
  0
VERTEX
  5
403
330
3EF
100
AcDbEntity
  8
Sichtbare Kanten(TC_020513_DIN)
100
AcDbVertex
100
AcDb2dVertex
 10
147.4781611614559
 20
149.2959459537694
 30
0.0
  0
VERTEX
  5
404
330
3EF
100
AcDbEntity
  8
Sichtbare Kanten(TC_020513_DIN)
100
AcDbVertex
100
AcDb2dVertex
 10
147.4683454685543
 20
149.2479162329862
 30
0.0
  0
VERTEX
  5
405
330
3EF
100
AcDbEntity
  8
Sichtbare Kanten(TC_020513_DIN)
100
AcDbVertex
100
AcDb2dVertex
 10
147.4585273914669
 20
149.2001958603093
 30
0.0
  0
VERTEX
  5
406
330
3EF
100
AcDbEntity
  8
Sichtbare Kanten(TC_020513_DIN)
100
AcDbVertex
100
AcDb2dVertex
 10
147.4487093143795
 20
149.1527967566678
 30
0.0
  0
VERTEX
  5
407
330
3EF
100
AcDbEntity
  8
Sichtbare Kanten(TC_020513_DIN)
100
AcDbVertex
100
AcDb2dVertex
 10
147.4388888531063
 20
149.1057305449674
 30
0.0
  0
VERTEX
  5
408
330
3EF
100
AcDbEntity
  8
Sichtbare Kanten(TC_020513_DIN)
100
AcDbVertex
100
AcDb2dVertex
 10
147.4290636234615
 20
149.0590094441602
 30
0.0
  0
VERTEX
  5
409
330
3EF
100
AcDbEntity
  8
Sichtbare Kanten(TC_020513_DIN)
100
AcDbVertex
100
AcDb2dVertex
 10
147.4192360096309
 20
149.012645077152
 30
0.0
  0
SEQEND
  5
3F2
330
3EF
100
AcDbEntity
  8
Sichtbare Kanten(TC_020513_DIN)
  0
LINE
  5
40A
330
37
100
AcDbEntity
  8
Sichtbare Kanten(TC_020513_DIN)
100
AcDbLine
 10
147.4192353146193
 20
149.3439762802919
 30
0.0
 11
147.4192353146193
 21
149.6043107578483
 31
0.0
  0
LINE
  5
40B
330
37
100
AcDbEntity
  8
Sichtbare Kanten(TC_020513_DIN)
100
AcDbLine
 10
147.4192353146193
 20
149.0126451914114
 30
0.0
 11
147.4192353146193
 21
149.3439762802919
 31
0.0
  0
POLYLINE
  5
40C
330
37
100
AcDbEntity
  8
Sichtbare Kanten(TC_020513_DIN)
100
AcDb2dPolyline
 66
     1
 10
0.0
 20
0.0
 30
0.0
 70
   128
  0
VERTEX
  5
40D
330
40C
100
AcDbEntity
  8
Sichtbare Kanten(TC_020513_DIN)
100
AcDbVertex
100
AcDb2dVertex
 10
160.5314520054195
 20
162.1914090627859
 30
0.0
  0
VERTEX
  5
40E
330
40C
100
AcDbEntity
  8
Sichtbare Kanten(TC_020513_DIN)
100
AcDbVertex
100
AcDb2dVertex
 10
160.5313804798458
 20
162.1824814790914
 30
0.0
  0
VERTEX
  5
410
330
40C
100
AcDbEntity
  8
Sichtbare Kanten(TC_020513_DIN)
100
AcDbVertex
100
AcDb2dVertex
 10
160.5311611347531
 20
162.1735527033041
 30
0.0
  0
VERTEX
  5
411
330
40C
100
AcDbEntity
  8
Sichtbare Kanten(TC_020513_DIN)
100
AcDbVertex
100
AcDb2dVertex
 10
160.5307939701412
 20
162.1646251196096
 30
0.0
  0
VERTEX
  5
412
330
40C
100
AcDbEntity
  8
Sichtbare Kanten(TC_020513_DIN)
100
AcDbVertex
100
AcDb2dVertex
 10
160.5302837543819
 20
162.1556975359152
 30
0.0
  0
VERTEX
  5
413
330
40C
100
AcDbEntity
  8
Sichtbare Kanten(TC_020513_DIN)
100
AcDbVertex
100
AcDb2dVertex
 10
160.5296257191036
 20
162.1467711443136
 30
0.0
  0
VERTEX
  5
414
330
40C
100
AcDbEntity
  8
Sichtbare Kanten(TC_020513_DIN)
100
AcDbVertex
100
AcDb2dVertex
 10
160.5288198643063
 20
162.137844752712
 30
0.0
  0
VERTEX
  5
415
330
40C
100
AcDbEntity
  8
Sichtbare Kanten(TC_020513_DIN)
100
AcDbVertex
100
AcDb2dVertex
 10
160.5278709583615
 20
162.1289171690176
 30
0.0
  0
VERTEX
  5
416
330
40C
100
AcDbEntity
  8
Sichtbare Kanten(TC_020513_DIN)
100
AcDbVertex
100
AcDb2dVertex
 10
160.5267742328976
 20
162.119990777416
 30
0.0
  0
VERTEX
  5
417
330
40C
100
AcDbEntity
  8
Sichtbare Kanten(TC_020513_DIN)
100
AcDbVertex
100
AcDb2dVertex
 10
160.5255296879147
 20
162.1110631937215
 30
0.0
  0
VERTEX
  5
418
330
40C
100
AcDbEntity
  8
Sichtbare Kanten(TC_020513_DIN)
100
AcDbVertex
100
AcDb2dVertex
 10
160.5241420917843
 20
162.1021356100271
 30
0.0
  0
VERTEX
  5
419
330
40C
100
AcDbEntity
  8
Sichtbare Kanten(TC_020513_DIN)
100
AcDbVertex
100
AcDb2dVertex
 10
160.5226114445065
 20
162.0932068342398
 30
0.0
  0
VERTEX
  5
41A
330
40C
100
AcDbEntity
  8
Sichtbare Kanten(TC_020513_DIN)
100
AcDbVertex
100
AcDb2dVertex
 10
160.520928209338
 20
162.0842792505453
 30
0.0
  0
VERTEX
  5
41B
330
40C
100
AcDbEntity
  8
Sichtbare Kanten(TC_020513_DIN)
100
AcDbVertex
100
AcDb2dVertex
 10
160.5191019230221
 20
162.0753504747579
 30
0.0
  0
VERTEX
  5
41C
330
40C
100
AcDbEntity
  8
Sichtbare Kanten(TC_020513_DIN)
100
AcDbVertex
100
AcDb2dVertex
 10
160.5171325855587
 20
162.0664216989706
 30
0.0
  0
VERTEX
  5
41D
330
40C
100
AcDbEntity
  8
Sichtbare Kanten(TC_020513_DIN)
100
AcDbVertex
100
AcDb2dVertex
 10
160.5150154285763
 20
162.0574941152761
 30
0.0
  0
VERTEX
  5
41E
330
40C
100
AcDbEntity
  8
Sichtbare Kanten(TC_020513_DIN)
100
AcDbVertex
100
AcDb2dVertex
 10
160.5127504520748
 20
162.0485677236746
 30
0.0
  0
VERTEX
  5
41F
330
40C
100
AcDbEntity
  8
Sichtbare Kanten(TC_020513_DIN)
100
AcDbVertex
100
AcDb2dVertex
 10
160.5103471927975
 20
162.0396401399801
 30
0.0
  0
VERTEX
  5
420
330
40C
100
AcDbEntity
  8
Sichtbare Kanten(TC_020513_DIN)
100
AcDbVertex
100
AcDb2dVertex
 10
160.5077913456295
 20
162.0307137483785
 30
0.0
  0
VERTEX
  5
421
330
40C
100
AcDbEntity
  8
Sichtbare Kanten(TC_020513_DIN)
100
AcDbVertex
100
AcDb2dVertex
 10
160.5050972156857
 20
162.0217861646841
 30
0.0
  0
VERTEX
  5
422
330
40C
100
AcDbEntity
  8
Sichtbare Kanten(TC_020513_DIN)
100
AcDbVertex
100
AcDb2dVertex
 10
160.5022504978512
 20
162.0128597730825
 30
0.0
  0
VERTEX
  5
423
330
40C
100
AcDbEntity
  8
Sichtbare Kanten(TC_020513_DIN)
100
AcDbVertex
100
AcDb2dVertex
 10
160.4992654972408
 20
162.0039321893881
 30
0.0
  0
VERTEX
  5
424
330
40C
100
AcDbEntity
  8
Sichtbare Kanten(TC_020513_DIN)
100
AcDbVertex
100
AcDb2dVertex
 10
160.4961326771114
 20
161.9950046056936
 30
0.0
  0
VERTEX
  5
425
330
40C
100
AcDbEntity
  8
Sichtbare Kanten(TC_020513_DIN)
100
AcDbVertex
100
AcDb2dVertex
 10
160.4928568058346
 20
161.9860770219991
 30
0.0
  0
VERTEX
  5
426
330
40C
100
AcDbEntity
  8
Sichtbare Kanten(TC_020513_DIN)
100
AcDbVertex
100
AcDb2dVertex
 10
160.4894378834103
 20
161.9771482462118
 30
0.0
  0
SEQEND
  5
40F
330
40C
100
AcDbEntity
  8
Sichtbare Kanten(TC_020513_DIN)
  0
LINE
  5
427
330
37
100
AcDbEntity
  8
Sichtbare Kanten(TC_020513_DIN)
100
AcDbLine
 10
159.747454871873
 20
162.1914096019791
 30
0.0
 11
160.5314529590938
 21
162.1914096019791
 31
0.0
  0
LINE
  5
428
330
37
100
AcDbEntity
  8
Sichtbare Kanten(TC_020513_DIN)
100
AcDbLine
 10
159.1314529590938
 20
162.1914096019791
 30
0.0
 11
159.747454871873
 21
162.1914096019791
 31
0.0
  0
POLYLINE
  5
429
330
37
100
AcDbEntity
  8
Sichtbare Kanten(TC_020513_DIN)
100
AcDb2dPolyline
 66
     1
 10
0.0
 20
0.0
 30
0.0
 70
   128
  0
VERTEX
  5
42A
330
429
100
AcDbEntity
  8
Sichtbare Kanten(TC_020513_DIN)
100
AcDbVertex
100
AcDb2dVertex
 10
159.1104438953731
 20
161.9771482462118
 30
0.0
  0
VERTEX
  5
42B
330
429
100
AcDbEntity
  8
Sichtbare Kanten(TC_020513_DIN)
100
AcDbVertex
100
AcDb2dVertex
 10
159.1121557407711
 20
161.9860770219991
 30
0.0
  0
VERTEX
  5
42D
330
429
100
AcDbEntity
  8
Sichtbare Kanten(TC_020513_DIN)
100
AcDbVertex
100
AcDb2dVertex
 10
159.1137912922237
 20
161.9950046056936
 30
0.0
  0
VERTEX
  5
42E
330
429
100
AcDbEntity
  8
Sichtbare Kanten(TC_020513_DIN)
100
AcDbVertex
100
AcDb2dVertex
 10
159.1153600864742
 20
162.0039321893881
 30
0.0
  0
VERTEX
  5
42F
330
429
100
AcDbEntity
  8
Sichtbare Kanten(TC_020513_DIN)
100
AcDbVertex
100
AcDb2dVertex
 10
159.1168525867794
 20
162.0128597730825
 30
0.0
  0
VERTEX
  5
430
330
429
100
AcDbEntity
  8
Sichtbare Kanten(TC_020513_DIN)
100
AcDbVertex
100
AcDb2dVertex
 10
159.1182735615108
 20
162.0217861646841
 30
0.0
  0
VERTEX
  5
431
330
429
100
AcDbEntity
  8
Sichtbare Kanten(TC_020513_DIN)
100
AcDbVertex
100
AcDb2dVertex
 10
159.1196230106685
 20
162.0307137483785
 30
0.0
  0
VERTEX
  5
432
330
429
100
AcDbEntity
  8
Sichtbare Kanten(TC_020513_DIN)
100
AcDbVertex
100
AcDb2dVertex
 10
159.1209009342525
 20
162.0396401399801
 30
0.0
  0
VERTEX
  5
433
330
429
100
AcDbEntity
  8
Sichtbare Kanten(TC_020513_DIN)
100
AcDbVertex
100
AcDb2dVertex
 10
159.1221025638912
 20
162.0485677236746
 30
0.0
  0
VERTEX
  5
434
330
429
100
AcDbEntity
  8
Sichtbare Kanten(TC_020513_DIN)
100
AcDbVertex
100
AcDb2dVertex
 10
159.1232326679561
 20
162.0574941152761
 30
0.0
  0
VERTEX
  5
435
330
429
100
AcDbEntity
  8
Sichtbare Kanten(TC_020513_DIN)
100
AcDbVertex
100
AcDb2dVertex
 10
159.1242912464474
 20
162.0664216989706
 30
0.0
  0
VERTEX
  5
436
330
429
100
AcDbEntity
  8
Sichtbare Kanten(TC_020513_DIN)
100
AcDbVertex
100
AcDb2dVertex
 10
159.1252782993648
 20
162.0753504747579
 30
0.0
  0
VERTEX
  5
437
330
429
100
AcDbEntity
  8
Sichtbare Kanten(TC_020513_DIN)
100
AcDbVertex
100
AcDb2dVertex
 10
159.126189058337
 20
162.0842792505453
 30
0.0
  0
VERTEX
  5
438
330
429
100
AcDbEntity
  8
Sichtbare Kanten(TC_020513_DIN)
100
AcDbVertex
100
AcDb2dVertex
 10
159.127033060107
 20
162.0932068342398
 30
0.0
  0
VERTEX
  5
439
330
429
100
AcDbEntity
  8
Sichtbare Kanten(TC_020513_DIN)
100
AcDbVertex
100
AcDb2dVertex
 10
159.1277959995601
 20
162.1021356100271
 30
0.0
  0
VERTEX
  5
43A
330
429
100
AcDbEntity
  8
Sichtbare Kanten(TC_020513_DIN)
100
AcDbVertex
100
AcDb2dVertex
 10
159.1284921818111
 20
162.1110631937215
 30
0.0
  0
VERTEX
  5
43B
330
429
100
AcDbEntity
  8
Sichtbare Kanten(TC_020513_DIN)
100
AcDbVertex
100
AcDb2dVertex
 10
159.1291120701168
 20
162.119990777416
 30
0.0
  0
VERTEX
  5
43C
330
429
100
AcDbEntity
  8
Sichtbare Kanten(TC_020513_DIN)
100
AcDbVertex
100
AcDb2dVertex
 10
159.1296604328487
 20
162.1289171690176
 30
0.0
  0
VERTEX
  5
43D
330
429
100
AcDbEntity
  8
Sichtbare Kanten(TC_020513_DIN)
100
AcDbVertex
100
AcDb2dVertex
 10
159.1301372700069
 20
162.137844752712
 30
0.0
  0
VERTEX
  5
43E
330
429
100
AcDbEntity
  8
Sichtbare Kanten(TC_020513_DIN)
100
AcDbVertex
100
AcDb2dVertex
 10
159.1305378132198
 20
162.1467711443136
 30
0.0
  0
VERTEX
  5
43F
330
429
100
AcDbEntity
  8
Sichtbare Kanten(TC_020513_DIN)
100
AcDbVertex
100
AcDb2dVertex
 10
159.130866830859
 20
162.1556975359152
 30
0.0
  0
VERTEX
  5
440
330
429
100
AcDbEntity
  8
Sichtbare Kanten(TC_020513_DIN)
100
AcDbVertex
100
AcDb2dVertex
 10
159.1311243229244
 20
162.1646251196096
 30
0.0
  0
VERTEX
  5
441
330
429
100
AcDbEntity
  8
Sichtbare Kanten(TC_020513_DIN)
100
AcDbVertex
100
AcDb2dVertex
 10
159.1313055210445
 20
162.1735527033041
 30
0.0
  0
VERTEX
  5
442
330
429
100
AcDbEntity
  8
Sichtbare Kanten(TC_020513_DIN)
100
AcDbVertex
100
AcDb2dVertex
 10
159.1314151935909
 20
162.1824814790914
 30
0.0
  0
VERTEX
  5
443
330
429
100
AcDbEntity
  8
Sichtbare Kanten(TC_020513_DIN)
100
AcDbVertex
100
AcDb2dVertex
 10
159.1314533405635
 20
162.1914090627859
 30
0.0
  0
SEQEND
  5
42C
330
429
100
AcDbEntity
  8
Sichtbare Kanten(TC_020513_DIN)
  0
POLYLINE
  5
444
330
37
100
AcDbEntity
  8
Sichtbare Kanten(TC_020513_DIN)
100
AcDb2dPolyline
 66
     1
 10
0.0
 20
0.0
 30
0.0
 70
   128
  0
VERTEX
  5
445
330
444
100
AcDbEntity
  8
Sichtbare Kanten(TC_020513_DIN)
100
AcDbVertex
100
AcDb2dVertex
 10
160.4894378834103
 20
161.9771482462118
 30
0.0
  0
VERTEX
  5
446
330
444
100
AcDbEntity
  8
Sichtbare Kanten(TC_020513_DIN)
100
AcDbVertex
100
AcDb2dVertex
 10
160.4857948475216
 20
161.9681181425283
 30
0.0
  0
VERTEX
  5
448
330
444
100
AcDbEntity
  8
Sichtbare Kanten(TC_020513_DIN)
100
AcDbVertex
100
AcDb2dVertex
 10
160.4814842396114
 20
161.958104562206
 30
0.0
  0
VERTEX
  5
449
330
444
100
AcDbEntity
  8
Sichtbare Kanten(TC_020513_DIN)
100
AcDbVertex
100
AcDb2dVertex
 10
160.4764297657345
 20
161.9472410196493
 30
0.0
  0
VERTEX
  5
44A
330
444
100
AcDbEntity
  8
Sichtbare Kanten(TC_020513_DIN)
100
AcDbVertex
100
AcDb2dVertex
 10
160.4705360584591
 20
161.9356657976339
 30
0.0
  0
VERTEX
  5
44B
330
444
100
AcDbEntity
  8
Sichtbare Kanten(TC_020513_DIN)
100
AcDbVertex
100
AcDb2dVertex
 10
160.4637363605831
 20
161.9235100263784
 30
0.0
  0
VERTEX
  5
44C
330
444
100
AcDbEntity
  8
Sichtbare Kanten(TC_020513_DIN)
100
AcDbVertex
100
AcDb2dVertex
 10
160.4559400730465
 20
161.9109131807516
 30
0.0
  0
VERTEX
  5
44D
330
444
100
AcDbEntity
  8
Sichtbare Kanten(TC_020513_DIN)
100
AcDbVertex
100
AcDb2dVertex
 10
160.4470709019039
 20
161.8980063909719
 30
0.0
  0
VERTEX
  5
44E
330
444
100
AcDbEntity
  8
Sichtbare Kanten(TC_020513_DIN)
100
AcDbVertex
100
AcDb2dVertex
 10
160.4370477848385
 20
161.8849279398153
 30
0.0
  0
VERTEX
  5
44F
330
444
100
AcDbEntity
  8
Sichtbare Kanten(TC_020513_DIN)
100
AcDbVertex
100
AcDb2dVertex
 10
160.4257848911617
 20
161.8718125337789
 30
0.0
  0
VERTEX
  5
450
330
444
100
AcDbEntity
  8
Sichtbare Kanten(TC_020513_DIN)
100
AcDbVertex
100
AcDb2dVertex
 10
160.4132106952999
 20
161.8587936872671
 30
0.0
  0
VERTEX
  5
451
330
444
100
AcDbEntity
  8
Sichtbare Kanten(TC_020513_DIN)
100
AcDbVertex
100
AcDb2dVertex
 10
160.399234598193
 20
161.8460084909628
 30
0.0
  0
VERTEX
  5
452
330
444
100
AcDbEntity
  8
Sichtbare Kanten(TC_020513_DIN)
100
AcDbVertex
100
AcDb2dVertex
 10
160.383775537524
 20
161.8335904592703
 30
0.0
  0
VERTEX
  5
453
330
444
100
AcDbEntity
  8
Sichtbare Kanten(TC_020513_DIN)
100
AcDbVertex
100
AcDb2dVertex
 10
160.3667619877193
 20
161.8216766828725
 30
0.0
  0
VERTEX
  5
454
330
444
100
AcDbEntity
  8
Sichtbare Kanten(TC_020513_DIN)
100
AcDbVertex
100
AcDb2dVertex
 10
160.3481033497189
 20
161.8104018682668
 30
0.0
  0
VERTEX
  5
455
330
444
100
AcDbEntity
  8
Sichtbare Kanten(TC_020513_DIN)
100
AcDbVertex
100
AcDb2dVertex
 10
160.3280380421017
 20
161.8000354284475
 30
0.0
  0
VERTEX
  5
456
330
444
100
AcDbEntity
  8
Sichtbare Kanten(TC_020513_DIN)
100
AcDbVertex
100
AcDb2dVertex
 10
160.3069046192501
 20
161.7907788271139
 30
0.0
  0
VERTEX
  5
457
330
444
100
AcDbEntity
  8
Sichtbare Kanten(TC_020513_DIN)
100
AcDbVertex
100
AcDb2dVertex
 10
160.2847078495358
 20
161.7826284879873
 30
0.0
  0
VERTEX
  5
458
330
444
100
AcDbEntity
  8
Sichtbare Kanten(TC_020513_DIN)
100
AcDbVertex
100
AcDb2dVertex
 10
160.2614668064449
 20
161.7755772585104
 30
0.0
  0
VERTEX
  5
459
330
444
100
AcDbEntity
  8
Sichtbare Kanten(TC_020513_DIN)
100
AcDbVertex
100
AcDb2dVertex
 10
160.2371814899776
 20
161.7696239465902
 30
0.0
  0
VERTEX
  5
45A
330
444
100
AcDbEntity
  8
Sichtbare Kanten(TC_020513_DIN)
100
AcDbVertex
100
AcDb2dVertex
 10
160.2118709736202
 20
161.7647625917623
 30
0.0
  0
VERTEX
  5
45B
330
444
100
AcDbEntity
  8
Sichtbare Kanten(TC_020513_DIN)
100
AcDbVertex
100
AcDb2dVertex
 10
160.1855352573727
 20
161.760989617748
 30
0.0
  0
VERTEX
  5
45C
330
444
100
AcDbEntity
  8
Sichtbare Kanten(TC_020513_DIN)
100
AcDbVertex
100
AcDb2dVertex
 10
160.1581934147213
 20
161.7583002561758
 30
0.0
  0
VERTEX
  5
45D
330
444
100
AcDbEntity
  8
Sichtbare Kanten(TC_020513_DIN)
100
AcDbVertex
100
AcDb2dVertex
 10
160.1298454456661
 20
161.7566897386739
 30
0.0
  0
VERTEX
  5
45E
330
444
100
AcDbEntity
  8
Sichtbare Kanten(TC_020513_DIN)
100
AcDbVertex
100
AcDb2dVertex
 10
160.100515192065
 20
161.756153296871
 30
0.0
  0
SEQEND
  5
447
330
444
100
AcDbEntity
  8
Sichtbare Kanten(TC_020513_DIN)
  0
POLYLINE
  5
45F
330
37
100
AcDbEntity
  8
Sichtbare Kanten(TC_020513_DIN)
100
AcDb2dPolyline
 66
     1
 10
0.0
 20
0.0
 30
0.0
 70
   128
  0
VERTEX
  5
460
330
45F
100
AcDbEntity
  8
Sichtbare Kanten(TC_020513_DIN)
100
AcDbVertex
100
AcDb2dVertex
 10
158.9159849338863
 20
161.756153296871
 30
0.0
  0
VERTEX
  5
461
330
45F
100
AcDbEntity
  8
Sichtbare Kanten(TC_020513_DIN)
100
AcDbVertex
100
AcDb2dVertex
 10
158.9302519016597
 20
161.7566623205374
 30
0.0
  0
VERTEX
  5
463
330
45F
100
AcDbEntity
  8
Sichtbare Kanten(TC_020513_DIN)
100
AcDbVertex
100
AcDb2dVertex
 10
158.9439943485592
 20
161.758183431072
 30
0.0
  0
VERTEX
  5
464
330
45F
100
AcDbEntity
  8
Sichtbare Kanten(TC_020513_DIN)
100
AcDbVertex
100
AcDb2dVertex
 10
158.9572218113277
 20
161.7607058996389
 30
0.0
  0
VERTEX
  5
465
330
45F
100
AcDbEntity
  8
Sichtbare Kanten(TC_020513_DIN)
100
AcDbVertex
100
AcDb2dVertex
 10
158.9699295215938
 20
161.7642178053091
 30
0.0
  0
VERTEX
  5
466
330
45F
100
AcDbEntity
  8
Sichtbare Kanten(TC_020513_DIN)
100
AcDbVertex
100
AcDb2dVertex
 10
158.9821174793575
 20
161.7687108034322
 30
0.0
  0
VERTEX
  5
467
330
45F
100
AcDbEntity
  8
Sichtbare Kanten(TC_020513_DIN)
100
AcDbVertex
100
AcDb2dVertex
 10
158.9937856846187
 20
161.7741741651724
 30
0.0
  0
VERTEX
  5
468
330
45F
100
AcDbEntity
  8
Sichtbare Kanten(TC_020513_DIN)
100
AcDbVertex
100
AcDb2dVertex
 10
159.0049293690059
 20
161.7805947775076
 30
0.0
  0
VERTEX
  5
469
330
45F
100
AcDbEntity
  8
Sichtbare Kanten(TC_020513_DIN)
100
AcDbVertex
100
AcDb2dVertex
 10
159.0155533008907
 20
161.7879654878805
 30
0.0
  0
VERTEX
  5
46A
330
45F
100
AcDbEntity
  8
Sichtbare Kanten(TC_020513_DIN)
100
AcDbVertex
100
AcDb2dVertex
 10
159.025657480273
 20
161.7962731832693
 30
0.0
  0
VERTEX
  5
46B
330
45F
100
AcDbEntity
  8
Sichtbare Kanten(TC_020513_DIN)
100
AcDbVertex
100
AcDb2dVertex
 10
159.0352323704097
 20
161.8054964060018
 30
0.0
  0
VERTEX
  5
46C
330
45F
100
AcDbEntity
  8
Sichtbare Kanten(TC_020513_DIN)
100
AcDbVertex
100
AcDb2dVertex
 10
159.0442445926998
 20
161.8155803198049
 30
0.0
  0
VERTEX
  5
46D
330
45F
100
AcDbEntity
  8
Sichtbare Kanten(TC_020513_DIN)
100
AcDbVertex
100
AcDb2dVertex
 10
159.0527036838863
 20
161.826497506542
 30
0.0
  0
VERTEX
  5
46E
330
45F
100
AcDbEntity
  8
Sichtbare Kanten(TC_020513_DIN)
100
AcDbVertex
100
AcDb2dVertex
 10
159.0606287174557
 20
161.8382241243551
 30
0.0
  0
VERTEX
  5
46F
330
45F
100
AcDbEntity
  8
Sichtbare Kanten(TC_020513_DIN)
100
AcDbVertex
100
AcDb2dVertex
 10
159.068029230151
 20
161.850739907665
 30
0.0
  0
VERTEX
  5
470
330
45F
100
AcDbEntity
  8
Sichtbare Kanten(TC_020513_DIN)
100
AcDbVertex
100
AcDb2dVertex
 10
159.0749290638302
 20
161.864019822521
 30
0.0
  0
VERTEX
  5
471
330
45F
100
AcDbEntity
  8
Sichtbare Kanten(TC_020513_DIN)
100
AcDbVertex
100
AcDb2dVertex
 10
159.0812948398922
 20
161.8779482359121
 30
0.0
  0
VERTEX
  5
472
330
45F
100
AcDbEntity
  8
Sichtbare Kanten(TC_020513_DIN)
100
AcDbVertex
100
AcDb2dVertex
 10
159.0869692020748
 20
161.8919851297567
 30
0.0
  0
VERTEX
  5
473
330
45F
100
AcDbEntity
  8
Sichtbare Kanten(TC_020513_DIN)
100
AcDbVertex
100
AcDb2dVertex
 10
159.0919712238643
 20
161.9058980459402
 30
0.0
  0
VERTEX
  5
474
330
45F
100
AcDbEntity
  8
Sichtbare Kanten(TC_020513_DIN)
100
AcDbVertex
100
AcDb2dVertex
 10
159.0963485889766
 20
161.9195153230856
 30
0.0
  0
VERTEX
  5
475
330
45F
100
AcDbEntity
  8
Sichtbare Kanten(TC_020513_DIN)
100
AcDbVertex
100
AcDb2dVertex
 10
159.1001489811275
 20
161.9326652998159
 30
0.0
  0
VERTEX
  5
476
330
45F
100
AcDbEntity
  8
Sichtbare Kanten(TC_020513_DIN)
100
AcDbVertex
100
AcDb2dVertex
 10
159.1034105472896
 20
161.9451763147543
 30
0.0
  0
VERTEX
  5
477
330
45F
100
AcDbEntity
  8
Sichtbare Kanten(TC_020513_DIN)
100
AcDbVertex
100
AcDb2dVertex
 10
159.1061809711788
 20
161.9568755144308
 30
0.0
  0
VERTEX
  5
478
330
45F
100
AcDbEntity
  8
Sichtbare Kanten(TC_020513_DIN)
100
AcDbVertex
100
AcDb2dVertex
 10
159.1085127048824
 20
161.9675900453756
 30
0.0
  0
VERTEX
  5
479
330
45F
100
AcDbEntity
  8
Sichtbare Kanten(TC_020513_DIN)
100
AcDbVertex
100
AcDb2dVertex
 10
159.1104438953731
 20
161.9771482462118
 30
0.0
  0
SEQEND
  5
462
330
45F
100
AcDbEntity
  8
Sichtbare Kanten(TC_020513_DIN)
  0
LINE
  5
47A
330
37
100
AcDbEntity
  8
Sichtbare Kanten(TC_020513_DIN)
100
AcDbLine
 10
157.7314529590938
 20
161.7561533527827
 30
0.0
 11
160.1005134874373
 21
161.7561533527827
 31
0.0
  0
LINE
  5
47B
330
37
100
AcDbEntity
  8
Sichtbare Kanten(TC_020513_DIN)
100
AcDbLine
 10
160.5314529590938
 20
151.7561533527827
 30
0.0
 11
157.7314529590938
 21
151.7561533527827
 31
0.0
  0
LINE
  5
47C
330
37
100
AcDbEntity
  8
Sichtbare Kanten(TC_020513_DIN)
100
AcDbLine
 10
160.5314529590938
 20
162.1914096019791
 30
0.0
 11
160.5314529590938
 21
151.7561533527827
 31
0.0
  0
ARC
  5
47D
330
37
100
AcDbEntity
  8
Sichtbare Kanten(TC_020513_DIN)
100
AcDbCircle
 10
160.6314529590938
 20
134.2575131027803
 30
0.0
 40
0.1000000000000067
100
AcDbArc
 50
180.0
 51
270.0
  0
ARC
  5
47E
330
37
100
AcDbEntity
  8
Sichtbare Kanten(TC_020513_DIN)
100
AcDbCircle
 10
160.6314529590937
 20
134.2575131027803
 30
0.0
 40
1.499999999999914
100
AcDbArc
 50
180.0
 51
206.9141492018611
  0
LINE
  5
47F
330
37
100
AcDbEntity
  8
Sichtbare Kanten(TC_020513_DIN)
100
AcDbLine
 10
156.5314529590938
 20
129.6451680177877
 30
0.0
 11
157.5314529590938
 21
129.0678177485981
 31
0.0
  0
LINE
  5
480
330
37
100
AcDbEntity
  8
Sichtbare Kanten(TC_020513_DIN)
100
AcDbLine
 10
151.5314529590938
 20
129.0678177485981
 30
0.0
 11
157.5314529590938
 21
129.0678177485981
 31
0.0
  0
LINE
  5
481
330
37
100
AcDbEntity
  8
Sichtbare Kanten(TC_020513_DIN)
100
AcDbLine
 10
151.5314529590938
 20
129.6451680177877
 30
0.0
 11
156.5314529590938
 21
129.6451680177877
 31
0.0
  0
LINE
  5
482
330
37
100
AcDbEntity
  8
Sichtbare Kanten(TC_020513_DIN)
100
AcDbLine
 10
151.5314529590938
 20
129.0678177485981
 30
0.0
 11
70.03145295909384
 21
129.0678177485981
 31
0.0
  0
LINE
  5
483
330
37
100
AcDbEntity
  8
Sichtbare Kanten(TC_020513_DIN)
100
AcDbLine
 10
151.5314529590938
 20
129.6451680177877
 30
0.0
 11
70.03145295909384
 21
129.6451680177877
 31
0.0
  0
LINE
  5
484
330
37
100
AcDbEntity
  8
Sichtbare Kanten(TC_020513_DIN)
100
AcDbLine
 10
64.03145295909386
 20
129.0678177485981
 30
0.0
 11
70.03145295909385
 21
129.0678177485981
 31
0.0
  0
LINE
  5
485
330
37
100
AcDbEntity
  8
Sichtbare Kanten(TC_020513_DIN)
100
AcDbLine
 10
65.03145295909385
 20
129.6451680177877
 30
0.0
 11
70.03145295909385
 21
129.6451680177877
 31
0.0
  0
LINE
  5
486
330
37
100
AcDbEntity
  8
Sichtbare Kanten(TC_020513_DIN)
100
AcDbLine
 10
65.03145295909385
 20
129.6451680177877
 30
0.0
 11
64.03145295909386
 21
129.0678177485981
 31
0.0
  0
LINE
  5
487
330
37
100
AcDbEntity
  8
Sichtbare Kanten(TC_020513_DIN)
100
AcDbLine
 10
64.03145295909386
 20
129.0678177485981
 30
0.0
 11
64.03145295909386
 21
130.7225182869773
 31
0.0
  0
LINE
  5
488
330
37
100
AcDbEntity
  8
Sichtbare Kanten(TC_020513_DIN)
100
AcDbLine
 10
64.03145295909386
 20
130.7225182869773
 30
0.0
 11
65.03145295909385
 21
130.1451680177877
 31
0.0
  0
LINE
  5
489
330
37
100
AcDbEntity
  8
Sichtbare Kanten(TC_020513_DIN)
100
AcDbLine
 10
65.03145295909385
 20
130.1451680177877
 30
0.0
 11
65.03145295909385
 21
129.6451680177877
 31
0.0
  0
LINE
  5
48A
330
37
100
AcDbEntity
  8
Sichtbare Kanten(TC_020513_DIN)
100
AcDbLine
 10
65.03145295909385
 20
130.1451680177877
 30
0.0
 11
70.03145295909385
 21
130.1451680177877
 31
0.0
  0
LINE
  5
48B
330
37
100
AcDbEntity
  8
Sichtbare Kanten(TC_020513_DIN)
100
AcDbLine
 10
70.03145295909385
 20
130.7225182869773
 30
0.0
 11
64.03145295909386
 21
130.7225182869773
 31
0.0
  0
LINE
  5
48C
330
37
100
AcDbEntity
  8
Sichtbare Kanten(TC_020513_DIN)
100
AcDbLine
 10
70.03145295909385
 20
130.7225182869773
 30
0.0
 11
151.5314529590938
 21
130.7225182869773
 31
0.0
  0
LINE
  5
48D
330
37
100
AcDbEntity
  8
Sichtbare Kanten(TC_020513_DIN)
100
AcDbLine
 10
151.5314529590938
 20
130.1451680177877
 30
0.0
 11
70.03145295909384
 21
130.1451680177877
 31
0.0
  0
LINE
  5
48E
330
37
100
AcDbEntity
  8
Sichtbare Kanten(TC_020513_DIN)
100
AcDbLine
 10
157.5314529590938
 20
130.7225182869773
 30
0.0
 11
151.5314529590938
 21
130.7225182869773
 31
0.0
  0
LINE
  5
48F
330
37
100
AcDbEntity
  8
Sichtbare Kanten(TC_020513_DIN)
100
AcDbLine
 10
151.5314529590938
 20
130.1451680177877
 30
0.0
 11
156.5314529590938
 21
130.1451680177877
 31
0.0
  0
LINE
  5
490
330
37
100
AcDbEntity
  8
Sichtbare Kanten(TC_020513_DIN)
100
AcDbLine
 10
157.5314529590938
 20
130.7225182869773
 30
0.0
 11
156.5314529590938
 21
130.1451680177877
 31
0.0
  0
LINE
  5
491
330
37
100
AcDbEntity
  8
Sichtbare Kanten(TC_020513_DIN)
100
AcDbLine
 10
156.5314529590938
 20
130.1451680177877
 30
0.0
 11
156.5314529590938
 21
129.6451680177877
 31
0.0
  0
LINE
  5
492
330
37
100
AcDbEntity
  8
Sichtbare Kanten(TC_020513_DIN)
100
AcDbLine
 10
157.5314529590938
 20
130.7225182869773
 30
0.0
 11
157.5314529590938
 21
129.0678177485981
 31
0.0
  0
LINE
  5
493
330
37
100
AcDbEntity
  8
Sichtbare Kanten(TC_020513_DIN)
100
AcDbLine
 10
156.5314529590938
 20
131.6451680177877
 30
0.0
 11
157.5314529590938
 21
131.0678177485981
 31
0.0
  0
LINE
  5
494
330
37
100
AcDbEntity
  8
Sichtbare Kanten(TC_020513_DIN)
100
AcDbLine
 10
151.5314529590938
 20
131.0678177485981
 30
0.0
 11
157.5314529590938
 21
131.0678177485981
 31
0.0
  0
LINE
  5
495
330
37
100
AcDbEntity
  8
Sichtbare Kanten(TC_020513_DIN)
100
AcDbLine
 10
151.5314529590938
 20
131.6451680177877
 30
0.0
 11
156.5314529590938
 21
131.6451680177877
 31
0.0
  0
LINE
  5
496
330
37
100
AcDbEntity
  8
Sichtbare Kanten(TC_020513_DIN)
100
AcDbLine
 10
151.5314529590938
 20
131.0678177485981
 30
0.0
 11
70.03145295909384
 21
131.0678177485981
 31
0.0
  0
LINE
  5
497
330
37
100
AcDbEntity
  8
Sichtbare Kanten(TC_020513_DIN)
100
AcDbLine
 10
151.5314529590938
 20
131.6451680177877
 30
0.0
 11
149.8148156565031
 21
131.6451680177877
 31
0.0
  0
LINE
  5
498
330
37
100
AcDbEntity
  8
Sichtbare Kanten(TC_020513_DIN)
100
AcDbLine
 10
120.574061114611
 20
131.6451680177877
 30
0.0
 11
100.9888448035766
 21
131.6451680177877
 31
0.0
  0
LINE
  5
499
330
37
100
AcDbEntity
  8
Sichtbare Kanten(TC_020513_DIN)
100
AcDbLine
 10
71.74809026168458
 20
131.6451680177877
 30
0.0
 11
70.03145295909385
 21
131.6451680177877
 31
0.0
  0
LINE
  5
49A
330
37
100
AcDbEntity
  8
Sichtbare Kanten(TC_020513_DIN)
100
AcDbLine
 10
64.03145295909386
 20
131.0678177485981
 30
0.0
 11
70.03145295909385
 21
131.0678177485981
 31
0.0
  0
LINE
  5
49B
330
37
100
AcDbEntity
  8
Sichtbare Kanten(TC_020513_DIN)
100
AcDbLine
 10
65.03145295909385
 20
131.6451680177877
 30
0.0
 11
70.03145295909385
 21
131.6451680177877
 31
0.0
  0
LINE
  5
49C
330
37
100
AcDbEntity
  8
Sichtbare Kanten(TC_020513_DIN)
100
AcDbLine
 10
65.03145295909385
 20
131.6451680177877
 30
0.0
 11
64.03145295909386
 21
131.0678177485981
 31
0.0
  0
LINE
  5
49D
330
37
100
AcDbEntity
  8
Sichtbare Kanten(TC_020513_DIN)
100
AcDbLine
 10
64.03145295909386
 20
131.0678177485981
 30
0.0
 11
64.03145295909386
 21
132.1785307151969
 31
0.0
  0
LINE
  5
49E
330
37
100
AcDbEntity
  8
Sichtbare Kanten(TC_020513_DIN)
100
AcDbLine
 10
64.97366707210344
 20
132.178530715197
 30
0.0
 11
65.03145295909385
 21
132.1451680177877
 31
0.0
  0
LINE
  5
49F
330
37
100
AcDbEntity
  8
Sichtbare Kanten(TC_020513_DIN)
100
AcDbLine
 10
65.03145295909385
 20
132.1451680177877
 30
0.0
 11
65.03145295909385
 21
131.6451680177877
 31
0.0
  0
LINE
  5
4A0
330
37
100
AcDbEntity
  8
Sichtbare Kanten(TC_020513_DIN)
100
AcDbLine
 10
65.03145295909385
 20
132.1451680177877
 30
0.0
 11
70.03145295909385
 21
132.1451680177877
 31
0.0
  0
LINE
  5
4A1
330
37
100
AcDbEntity
  8
Sichtbare Kanten(TC_020513_DIN)
100
AcDbLine
 10
151.5314529590938
 20
132.1451680177877
 30
0.0
 11
149.8148156565031
 21
132.1451680177877
 31
0.0
  0
LINE
  5
4A2
330
37
100
AcDbEntity
  8
Sichtbare Kanten(TC_020513_DIN)
100
AcDbLine
 10
120.5648156565031
 20
132.1451680177877
 30
0.0
 11
100.9980902616846
 21
132.1451680177877
 31
0.0
  0
LINE
  5
4A3
330
37
100
AcDbEntity
  8
Sichtbare Kanten(TC_020513_DIN)
100
AcDbLine
 10
71.74809026168458
 20
132.1451680177877
 30
0.0
 11
70.03145295909385
 21
132.1451680177877
 31
0.0
  0
LINE
  5
4A4
330
37
100
AcDbEntity
  8
Sichtbare Kanten(TC_020513_DIN)
100
AcDbLine
 10
151.5314529590938
 20
132.1451680177877
 30
0.0
 11
156.5314529590938
 21
132.1451680177877
 31
0.0
  0
LINE
  5
4A5
330
37
100
AcDbEntity
  8
Sichtbare Kanten(TC_020513_DIN)
100
AcDbLine
 10
156.5892388460842
 20
132.1785307151969
 30
0.0
 11
156.5314529590938
 21
132.1451680177877
 31
0.0
  0
LINE
  5
4A6
330
37
100
AcDbEntity
  8
Sichtbare Kanten(TC_020513_DIN)
100
AcDbLine
 10
156.5314529590938
 20
132.1451680177877
 30
0.0
 11
156.5314529590938
 21
131.6451680177877
 31
0.0
  0
LINE
  5
4A7
330
37
100
AcDbEntity
  8
Sichtbare Kanten(TC_020513_DIN)
100
AcDbLine
 10
157.5314529590938
 20
132.1785307151969
 30
0.0
 11
157.5314529590938
 21
131.0678177485981
 31
0.0
  0
LINE
  5
4A8
330
37
100
AcDbEntity
  8
Sichtbare Kanten(TC_020513_DIN)
100
AcDbLine
 10
64.03145295909386
 20
133.5785307151969
 30
0.0
 11
64.03145295909386
 21
134.7225182869773
 31
0.0
  0
LINE
  5
4A9
330
37
100
AcDbEntity
  8
Sichtbare Kanten(TC_020513_DIN)
100
AcDbLine
 10
156.5314529590938
 20
133.6451680177877
 30
0.0
 11
156.6468721528603
 21
133.5785307151969
 31
0.0
  0
LINE
  5
4AA
330
37
100
AcDbEntity
  8
Sichtbare Kanten(TC_020513_DIN)
100
AcDbLine
 10
151.5314529590938
 20
133.6451680177877
 30
0.0
 11
156.5314529590938
 21
133.6451680177877
 31
0.0
  0
LINE
  5
4AB
330
37
100
AcDbEntity
  8
Sichtbare Kanten(TC_020513_DIN)
100
AcDbLine
 10
151.5314529590938
 20
133.6451680177877
 30
0.0
 11
70.03145295909384
 21
133.6451680177877
 31
0.0
  0
LINE
  5
4AC
330
37
100
AcDbEntity
  8
Sichtbare Kanten(TC_020513_DIN)
100
AcDbLine
 10
65.03145295909385
 20
133.6451680177877
 30
0.0
 11
70.03145295909385
 21
133.6451680177877
 31
0.0
  0
LINE
  5
4AD
330
37
100
AcDbEntity
  8
Sichtbare Kanten(TC_020513_DIN)
100
AcDbLine
 10
65.03145295909385
 20
133.6451680177877
 30
0.0
 11
64.91603376532734
 21
133.5785307151969
 31
0.0
  0
LINE
  5
4AE
330
37
100
AcDbEntity
  8
Sichtbare Kanten(TC_020513_DIN)
100
AcDbLine
 10
64.03145295909386
 20
134.7225182869773
 30
0.0
 11
65.03145295909385
 21
134.1451680177877
 31
0.0
  0
LINE
  5
4AF
330
37
100
AcDbEntity
  8
Sichtbare Kanten(TC_020513_DIN)
100
AcDbLine
 10
65.03145295909385
 20
134.1451680177877
 30
0.0
 11
65.03145295909385
 21
133.6451680177877
 31
0.0
  0
LINE
  5
4B0
330
37
100
AcDbEntity
  8
Sichtbare Kanten(TC_020513_DIN)
100
AcDbLine
 10
65.03145295909385
 20
134.1451680177877
 30
0.0
 11
70.03145295909385
 21
134.1451680177877
 31
0.0
  0
LINE
  5
4B1
330
37
100
AcDbEntity
  8
Sichtbare Kanten(TC_020513_DIN)
100
AcDbLine
 10
70.03145295909385
 20
134.7225182869773
 30
0.0
 11
64.03145295909386
 21
134.7225182869773
 31
0.0
  0
LINE
  5
4B2
330
37
100
AcDbEntity
  8
Sichtbare Kanten(TC_020513_DIN)
100
AcDbLine
 10
70.03145295909385
 20
134.7225182869773
 30
0.0
 11
151.5314529590938
 21
134.7225182869773
 31
0.0
  0
LINE
  5
4B3
330
37
100
AcDbEntity
  8
Sichtbare Kanten(TC_020513_DIN)
100
AcDbLine
 10
151.5314529590938
 20
134.1451680177877
 30
0.0
 11
70.03145295909384
 21
134.1451680177877
 31
0.0
  0
LINE
  5
4B4
330
37
100
AcDbEntity
  8
Sichtbare Kanten(TC_020513_DIN)
100
AcDbLine
 10
157.5314529590938
 20
134.7225182869773
 30
0.0
 11
151.5314529590938
 21
134.7225182869773
 31
0.0
  0
LINE
  5
4B5
330
37
100
AcDbEntity
  8
Sichtbare Kanten(TC_020513_DIN)
100
AcDbLine
 10
151.5314529590938
 20
134.1451680177877
 30
0.0
 11
156.5314529590938
 21
134.1451680177877
 31
0.0
  0
LINE
  5
4B6
330
37
100
AcDbEntity
  8
Sichtbare Kanten(TC_020513_DIN)
100
AcDbLine
 10
157.5314529590938
 20
134.7225182869773
 30
0.0
 11
156.5314529590938
 21
134.1451680177877
 31
0.0
  0
LINE
  5
4B7
330
37
100
AcDbEntity
  8
Sichtbare Kanten(TC_020513_DIN)
100
AcDbLine
 10
156.5314529590938
 20
134.1451680177877
 30
0.0
 11
156.5314529590938
 21
133.6451680177877
 31
0.0
  0
LINE
  5
4B8
330
37
100
AcDbEntity
  8
Sichtbare Kanten(TC_020513_DIN)
100
AcDbLine
 10
157.5314529590938
 20
134.7225182869773
 30
0.0
 11
157.5314529590938
 21
133.5785307151969
 31
0.0
  0
LINE
  5
4B9
330
37
100
AcDbEntity
  8
Sichtbare Kanten(TC_020513_DIN)
100
AcDbLine
 10
157.5314529590938
 20
131.0678177485981
 30
0.0
 11
157.5314529590938
 21
130.7225182869773
 31
0.0
  0
LINE
  5
4BA
330
37
100
AcDbEntity
  8
Sichtbare Kanten(TC_020513_DIN)
100
AcDbLine
 10
157.5314529590938
 20
129.0678177485981
 30
0.0
 11
157.5314529590938
 21
74.39516801778771
 31
0.0
  0
LINE
  5
4BB
330
37
100
AcDbEntity
  8
Sichtbare Kanten(TC_020513_DIN)
100
AcDbLine
 10
64.03145295909386
 20
131.0678177485981
 30
0.0
 11
64.03145295909386
 21
130.7225182869773
 31
0.0
  0
LINE
  5
4BC
330
37
100
AcDbEntity
  8
Sichtbare Kanten(TC_020513_DIN)
100
AcDbLine
 10
64.03145295909386
 20
148.3951680177877
 30
0.0
 11
64.03145295909386
 21
134.7225182869773
 31
0.0
  0
LINE
  5
4BD
330
37
100
AcDbEntity
  8
Sichtbare Kanten(TC_020513_DIN)
100
AcDbLine
 10
64.03145295909386
 20
129.0678177485981
 30
0.0
 11
64.03145295909386
 21
74.39516801778772
 31
0.0
  0
LINE
  5
4BE
330
37
100
AcDbEntity
  8
Sichtbare Kanten(TC_020513_DIN)
100
AcDbLine
 10
157.5314529590938
 20
148.3951680177877
 30
0.0
 11
157.5314529590938
 21
134.7225182869773
 31
0.0
  0
LINE
  5
4BF
330
37
100
AcDbEntity
  8
Sichtbare Kanten(TC_020513_DIN)
100
AcDbLine
 10
163.1314529590938
 20
148.3951680177877
 30
0.0
 11
163.1314529590938
 21
140.3951680177877
 31
0.0
  0
LINE
  5
4C0
330
37
100
AcDbEntity
  8
Sichtbare Kanten(TC_020513_DIN)
100
AcDbLine
 10
164.5314529590939
 20
148.3951680177877
 30
0.0
 11
164.5314529590939
 21
140.3951680177877
 31
0.0
  0
LINE
  5
4C1
330
37
100
AcDbEntity
  8
Sichtbare Kanten(TC_020513_DIN)
100
AcDbLine
 10
163.1314529590938
 20
141.8951680177877
 30
0.0
 11
162.5314529590938
 21
141.8951680177877
 31
0.0
  0
LINE
  5
4C2
330
37
100
AcDbEntity
  8
Sichtbare Kanten(TC_020513_DIN)
100
AcDbLine
 10
163.1314529590938
 20
146.8951680177877
 30
0.0
 11
162.5314529590938
 21
146.8951680177877
 31
0.0
  0
LINE
  5
4C3
330
37
100
AcDbEntity
  8
Sichtbare Kanten(TC_020513_DIN)
100
AcDbLine
 10
161.1314529590939
 20
141.8951680177877
 30
0.0
 11
160.5314529590938
 21
141.8951680177877
 31
0.0
  0
LINE
  5
4C4
330
37
100
AcDbEntity
  8
Sichtbare Kanten(TC_020513_DIN)
100
AcDbLine
 10
159.1314529590938
 20
141.8951680177877
 30
0.0
 11
157.5314529590938
 21
141.8951680177877
 31
0.0
  0
LINE
  5
4C5
330
37
100
AcDbEntity
  8
Sichtbare Kanten(TC_020513_DIN)
100
AcDbLine
 10
161.1314529590939
 20
146.8951680177877
 30
0.0
 11
160.5314529590938
 21
146.8951680177877
 31
0.0
  0
LINE
  5
4C6
330
37
100
AcDbEntity
  8
Sichtbare Kanten(TC_020513_DIN)
100
AcDbLine
 10
159.1314529590938
 20
146.8951680177877
 30
0.0
 11
157.5314529590938
 21
146.8951680177877
 31
0.0
  0
ARC
  5
4C7
330
37
100
AcDbEntity
  8
Sichtbare Kanten(TC_020513_DIN)
100
AcDbCircle
 10
163.8314529590938
 20
140.3951680177877
 30
0.0
 40
0.699999999999998
100
AcDbArc
 50
180.0
 51
0.0
  0
ARC
  5
4C8
330
37
100
AcDbEntity
  8
Sichtbare Kanten(TC_020513_DIN)
100
AcDbCircle
 10
163.8314529590938
 20
148.3951680177877
 30
0.0
 40
0.699999999999998
100
AcDbArc
 50
0.0
 51
180.0
  0
LINE
  5
4C9
330
37
100
AcDbEntity
  8
Sichtbare Kanten(TC_020513_DIN)
100
AcDbLine
 10
58.43145295909386
 20
148.3951680177877
 30
0.0
 11
58.43145295909386
 21
140.3951680177877
 31
0.0
  0
LINE
  5
4CA
330
37
100
AcDbEntity
  8
Sichtbare Kanten(TC_020513_DIN)
100
AcDbLine
 10
57.03145295909386
 20
148.3951680177877
 30
0.0
 11
57.03145295909386
 21
140.3951680177877
 31
0.0
  0
LINE
  5
4CB
330
37
100
AcDbEntity
  8
Sichtbare Kanten(TC_020513_DIN)
100
AcDbLine
 10
59.03145295909386
 20
141.8951680177877
 30
0.0
 11
58.43145295909387
 21
141.8951680177877
 31
0.0
  0
LINE
  5
4CC
330
37
100
AcDbEntity
  8
Sichtbare Kanten(TC_020513_DIN)
100
AcDbLine
 10
59.03145295909386
 20
146.8951680177877
 30
0.0
 11
58.43145295909387
 21
146.8951680177877
 31
0.0
  0
LINE
  5
4CD
330
37
100
AcDbEntity
  8
Sichtbare Kanten(TC_020513_DIN)
100
AcDbLine
 10
64.03145295909384
 20
141.8951680177877
 30
0.0
 11
62.43145295909386
 21
141.8951680177877
 31
0.0
  0
LINE
  5
4CE
330
37
100
AcDbEntity
  8
Sichtbare Kanten(TC_020513_DIN)
100
AcDbLine
 10
61.03145295909385
 20
141.8951680177877
 30
0.0
 11
60.43145295909383
 21
141.8951680177877
 31
0.0
  0
LINE
  5
4CF
330
37
100
AcDbEntity
  8
Sichtbare Kanten(TC_020513_DIN)
100
AcDbLine
 10
64.03145295909388
 20
146.8951680177877
 30
0.0
 11
62.43145295909386
 21
146.8951680177877
 31
0.0
  0
LINE
  5
4D0
330
37
100
AcDbEntity
  8
Sichtbare Kanten(TC_020513_DIN)
100
AcDbLine
 10
61.03145295909385
 20
146.8951680177877
 30
0.0
 11
60.43145295909383
 21
146.8951680177877
 31
0.0
  0
ARC
  5
4D1
330
37
100
AcDbEntity
  8
Sichtbare Kanten(TC_020513_DIN)
100
AcDbCircle
 10
57.73145295909386
 20
148.3951680177877
 30
0.0
 40
0.699999999999998
100
AcDbArc
 50
0.0
 51
180.0
  0
ARC
  5
4D2
330
37
100
AcDbEntity
  8
Sichtbare Kanten(TC_020513_DIN)
100
AcDbCircle
 10
57.73145295909386
 20
140.3951680177877
 30
0.0
 40
0.699999999999998
100
AcDbArc
 50
180.0
 51
0.0
  0
ARC
  5
4D3
330
37
100
AcDbEntity
  8
Sichtbare Kanten(TC_020513_DIN)
100
AcDbCircle
 10
155.5314529590938
 20
74.39516801778772
 30
0.0
 40
2.000000000000019
100
AcDbArc
 50
270.0000000000005
 51
0.0
  0
LINE
  5
4D4
330
37
100
AcDbEntity
  8
Sichtbare Kanten(TC_020513_DIN)
100
AcDbLine
 10
155.5314529590938
 20
72.39516801778771
 30
0.0
 11
151.5314529590938
 21
72.39516801778771
 31
0.0
  0
LINE
  5
4D5
330
37
100
AcDbEntity
  8
Sichtbare Kanten(TC_020513_DIN)
100
AcDbLine
 10
70.03145295909385
 20
72.39516801778771
 30
0.0
 11
151.5314529590938
 21
72.39516801778771
 31
0.0
  0
LINE
  5
4D6
330
37
100
AcDbEntity
  8
Sichtbare Kanten(TC_020513_DIN)
100
AcDbLine
 10
70.03145295909385
 20
72.39516801778771
 30
0.0
 11
66.03145295909385
 21
72.39516801778771
 31
0.0
  0
ARC
  5
4D7
330
37
100
AcDbEntity
  8
Sichtbare Kanten(TC_020513_DIN)
100
AcDbCircle
 10
66.03145295909387
 20
74.39516801778772
 30
0.0
 40
2.00000000000001
100
AcDbArc
 50
180.0
 51
269.9999999999995
  0
LINE
  5
4D8
330
37
100
AcDbEntity
  8
Sichtbare Kanten(TC_020513_DIN)
100
AcDbLine
 10
69.78145295909385
 20
148.3951680177877
 30
0.0
 11
74.32622724975814
 21
148.3951680177877
 31
0.0
  0
LINE
  5
4D9
330
37
100
AcDbEntity
  8
Sichtbare Kanten(TC_020513_DIN)
100
AcDbLine
 10
147.2366786684295
 20
148.3951680177877
 30
0.0
 11
151.7814529590938
 21
148.3951680177877
 31
0.0
  0
LINE
  5
4DA
330
37
100
AcDbEntity
  8
Sichtbare Kanten(TC_020513_DIN)
100
AcDbLine
 10
69.78145295909385
 20
148.3951680177877
 30
0.0
 11
63.78145295909385
 21
148.3951680177877
 31
0.0
  0
LINE
  5
4DB
330
37
100
AcDbEntity
  8
Sichtbare Kanten(TC_020513_DIN)
100
AcDbLine
 10
157.7814529590938
 20
148.3951680177877
 30
0.0
 11
151.7814529590938
 21
148.3951680177877
 31
0.0
  0
LINE
  5
4DC
330
37
100
AcDbEntity
  8
Sichtbare Kanten(TC_020513_DIN)
100
AcDbLine
 10
157.7814529590938
 20
151.7561533527827
 30
0.0
 11
157.7814529590938
 21
148.3951680177877
 31
0.0
  0
LINE
  5
4DD
330
37
100
AcDbEntity
  8
Sichtbare Kanten(TC_020513_DIN)
100
AcDbLine
 10
63.78145295909385
 20
151.7561533527827
 30
0.0
 11
63.78145295909385
 21
148.3951680177877
 31
0.0
  0
LINE
  5
4DE
330
37
100
AcDbEntity
  8
Sichtbare Kanten(TC_020513_DIN)
100
AcDbLine
 10
120.5648156565031
 20
132.1583965809825
 30
0.0
 11
120.5648156565031
 21
132.0785307151969
 31
0.0
  0
LINE
  5
4DF
330
37
100
AcDbEntity
  8
Sichtbare Kanten(TC_020513_DIN)
100
AcDbLine
 10
149.8148156565031
 20
132.0785307151969
 30
0.0
 11
149.8148156565031
 21
132.1785307151969
 31
0.0
  0
POLYLINE
  5
4E0
330
37
100
AcDbEntity
  8
Sichtbare Kanten(TC_020513_DIN)
100
AcDb2dPolyline
 66
     1
 10
0.0
 20
0.0
 30
0.0
 70
   128
  0
VERTEX
  5
4E1
330
4E0
100
AcDbEntity
  8
Sichtbare Kanten(TC_020513_DIN)
100
AcDbVertex
100
AcDb2dVertex
 10
120.4917833261822
 20
132.1785308832357
 30
0.0
  0
VERTEX
  5
4E2
330
4E0
100
AcDbEntity
  8
Sichtbare Kanten(TC_020513_DIN)
100
AcDbVertex
100
AcDb2dVertex
 10
120.4943916254375
 20
132.1785261148641
 30
0.0
  0
VERTEX
  5
4E4
330
4E0
100
AcDbEntity
  8
Sichtbare Kanten(TC_020513_DIN)
100
AcDbVertex
100
AcDb2dVertex
 10
120.4972752981517
 20
132.1785082334707
 30
0.0
  0
VERTEX
  5
4E5
330
4E0
100
AcDbEntity
  8
Sichtbare Kanten(TC_020513_DIN)
100
AcDbVertex
100
AcDb2dVertex
 10
120.5004033499096
 20
132.1784688944051
 30
0.0
  0
VERTEX
  5
4E6
330
4E0
100
AcDbEntity
  8
Sichtbare Kanten(TC_020513_DIN)
100
AcDbVertex
100
AcDb2dVertex
 10
120.5037418060634
 20
132.1784033292959
 30
0.0
  0
VERTEX
  5
4E7
330
4E0
100
AcDbEntity
  8
Sichtbare Kanten(TC_020513_DIN)
100
AcDbVertex
100
AcDb2dVertex
 10
120.5072590761516
 20
132.1783020013997
 30
0.0
  0
VERTEX
  5
4E8
330
4E0
100
AcDbEntity
  8
Sichtbare Kanten(TC_020513_DIN)
100
AcDbVertex
100
AcDb2dVertex
 10
120.510922973666
 20
132.1781589502523
 30
0.0
  0
VERTEX
  5
4E9
330
4E0
100
AcDbEntity
  8
Sichtbare Kanten(TC_020513_DIN)
100
AcDbVertex
100
AcDb2dVertex
 10
120.5146995239589
 20
132.177968215389
 30
0.0
  0
VERTEX
  5
4EA
330
4E0
100
AcDbEntity
  8
Sichtbare Kanten(TC_020513_DIN)
100
AcDbVertex
100
AcDb2dVertex
 10
120.5185577326153
 20
132.1777214521596
 30
0.0
  0
VERTEX
  5
4EB
330
4E0
100
AcDbEntity
  8
Sichtbare Kanten(TC_020513_DIN)
100
AcDbVertex
100
AcDb2dVertex
 10
120.5224648170803
 20
132.1774115080068
 30
0.0
  0
VERTEX
  5
4EC
330
4E0
100
AcDbEntity
  8
Sichtbare Kanten(TC_020513_DIN)
100
AcDbVertex
100
AcDb2dVertex
 10
120.5263873987529
 20
132.177032422466
 30
0.0
  0
VERTEX
  5
4ED
330
4E0
100
AcDbEntity
  8
Sichtbare Kanten(TC_020513_DIN)
100
AcDbVertex
100
AcDb2dVertex
 10
120.5302938871715
 20
132.17657704298
 30
0.0
  0
VERTEX
  5
4EE
330
4E0
100
AcDbEntity
  8
Sichtbare Kanten(TC_020513_DIN)
100
AcDbVertex
100
AcDb2dVertex
 10
120.5341514997814
 20
132.1760382169912
 30
0.0
  0
VERTEX
  5
4EF
330
4E0
100
AcDbEntity
  8
Sichtbare Kanten(TC_020513_DIN)
100
AcDbVertex
100
AcDb2dVertex
 10
120.5379280500744
 20
132.1754075998494
 30
0.0
  0
VERTEX
  5
4F0
330
4E0
100
AcDbEntity
  8
Sichtbare Kanten(TC_020513_DIN)
100
AcDbVertex
100
AcDb2dVertex
 10
120.5415901594494
 20
132.1746804231832
 30
0.0
  0
VERTEX
  5
4F1
330
4E0
100
AcDbEntity
  8
Sichtbare Kanten(TC_020513_DIN)
100
AcDbVertex
100
AcDb2dVertex
 10
120.5451062374446
 20
132.1738483423421
 30
0.0
  0
VERTEX
  5
4F2
330
4E0
100
AcDbEntity
  8
Sichtbare Kanten(TC_020513_DIN)
100
AcDbVertex
100
AcDb2dVertex
 10
120.5484584026668
 20
132.1728994363973
 30
0.0
  0
VERTEX
  5
4F3
330
4E0
100
AcDbEntity
  8
Sichtbare Kanten(TC_020513_DIN)
100
AcDbVertex
100
AcDb2dVertex
 10
120.5516818218563
 20
132.1717955583761
 30
0.0
  0
VERTEX
  5
4F4
330
4E0
100
AcDbEntity
  8
Sichtbare Kanten(TC_020513_DIN)
100
AcDbVertex
100
AcDb2dVertex
 10
120.5547162943218
 20
132.170518826885
 30
0.0
  0
VERTEX
  5
4F5
330
4E0
100
AcDbEntity
  8
Sichtbare Kanten(TC_020513_DIN)
100
AcDbVertex
100
AcDb2dVertex
 10
120.5574891023967
 20
132.1690513605306
 30
0.0
  0
VERTEX
  5
4F6
330
4E0
100
AcDbEntity
  8
Sichtbare Kanten(TC_020513_DIN)
100
AcDbVertex
100
AcDb2dVertex
 10
120.559926932368
 20
132.167381238384
 30
0.0
  0
VERTEX
  5
4F7
330
4E0
100
AcDbEntity
  8
Sichtbare Kanten(TC_020513_DIN)
100
AcDbVertex
100
AcDb2dVertex
 10
120.561958258662
 20
132.165487002773
 30
0.0
  0
VERTEX
  5
4F8
330
4E0
100
AcDbEntity
  8
Sichtbare Kanten(TC_020513_DIN)
100
AcDbVertex
100
AcDb2dVertex
 10
120.5635085754726
 20
132.1633471960256
 30
0.0
  0
VERTEX
  5
4F9
330
4E0
100
AcDbEntity
  8
Sichtbare Kanten(TC_020513_DIN)
100
AcDbVertex
100
AcDb2dVertex
 10
120.5644837074611
 20
132.1609713548848
 30
0.0
  0
VERTEX
  5
4FA
330
4E0
100
AcDbEntity
  8
Sichtbare Kanten(TC_020513_DIN)
100
AcDbVertex
100
AcDb2dVertex
 10
120.5648157053325
 20
132.1583964342305
 30
0.0
  0
SEQEND
  5
4E3
330
4E0
100
AcDbEntity
  8
Sichtbare Kanten(TC_020513_DIN)
  0
POLYLINE
  5
4FB
330
37
100
AcDbEntity
  8
Sichtbare Kanten(TC_020513_DIN)
100
AcDb2dPolyline
 66
     1
 10
0.0
 20
0.0
 30
0.0
 70
   128
  0
VERTEX
  5
4FC
330
4FB
100
AcDbEntity
  8
Sichtbare Kanten(TC_020513_DIN)
100
AcDbVertex
100
AcDb2dVertex
 10
100.9980902128551
 20
132.1583964342305
 30
0.0
  0
VERTEX
  5
4FD
330
4FB
100
AcDbEntity
  8
Sichtbare Kanten(TC_020513_DIN)
100
AcDbVertex
100
AcDb2dVertex
 10
100.9982308798168
 20
132.1601070875356
 30
0.0
  0
VERTEX
  5
4FF
330
4FB
100
AcDbEntity
  8
Sichtbare Kanten(TC_020513_DIN)
100
AcDbVertex
100
AcDb2dVertex
 10
100.9987953358028
 20
132.1621002668569
 30
0.0
  0
VERTEX
  5
500
330
4FB
100
AcDbEntity
  8
Sichtbare Kanten(TC_020513_DIN)
100
AcDbVertex
100
AcDb2dVertex
 10
100.9999921970699
 20
132.1642877573202
 30
0.0
  0
VERTEX
  5
501
330
4FB
100
AcDbEntity
  8
Sichtbare Kanten(TC_020513_DIN)
100
AcDbVertex
100
AcDb2dVertex
 10
101.0018584184978
 20
132.1664168352315
 30
0.0
  0
VERTEX
  5
502
330
4FB
100
AcDbEntity
  8
Sichtbare Kanten(TC_020513_DIN)
100
AcDbVertex
100
AcDb2dVertex
 10
101.0042080335949
 20
132.1682812685201
 30
0.0
  0
VERTEX
  5
503
330
4FB
100
AcDbEntity
  8
Sichtbare Kanten(TC_020513_DIN)
100
AcDbVertex
100
AcDb2dVertex
 10
101.0069397144649
 20
132.1699001306722
 30
0.0
  0
VERTEX
  5
504
330
4FB
100
AcDbEntity
  8
Sichtbare Kanten(TC_020513_DIN)
100
AcDbVertex
100
AcDb2dVertex
 10
101.0099843197201
 20
132.1713068002889
 30
0.0
  0
VERTEX
  5
505
330
4FB
100
AcDbEntity
  8
Sichtbare Kanten(TC_020513_DIN)
100
AcDbVertex
100
AcDb2dVertex
 10
101.0133072786663
 20
132.1725346559713
 30
0.0
  0
VERTEX
  5
506
330
4FB
100
AcDbEntity
  8
Sichtbare Kanten(TC_020513_DIN)
100
AcDbVertex
100
AcDb2dVertex
 10
101.0168460064266
 20
132.1735956186483
 30
0.0
  0
VERTEX
  5
507
330
4FB
100
AcDbEntity
  8
Sichtbare Kanten(TC_020513_DIN)
100
AcDbVertex
100
AcDb2dVertex
 10
101.020537918124
 20
132.1745063776204
 30
0.0
  0
VERTEX
  5
508
330
4FB
100
AcDbEntity
  8
Sichtbare Kanten(TC_020513_DIN)
100
AcDbVertex
100
AcDb2dVertex
 10
101.0243216209743
 20
132.1752800459096
 30
0.0
  0
VERTEX
  5
509
330
4FB
100
AcDbEntity
  8
Sichtbare Kanten(TC_020513_DIN)
100
AcDbVertex
100
AcDb2dVertex
 10
101.0281571798656
 20
132.1759345049093
 30
0.0
  0
VERTEX
  5
50A
330
4FB
100
AcDbEntity
  8
Sichtbare Kanten(TC_020513_DIN)
100
AcDbVertex
100
AcDb2dVertex
 10
101.0320767813061
 20
132.1764935964773
 30
0.0
  0
VERTEX
  5
50B
330
4FB
100
AcDbEntity
  8
Sichtbare Kanten(TC_020513_DIN)
100
AcDbVertex
100
AcDb2dVertex
 10
101.0360506229732
 20
132.1769668573568
 30
0.0
  0
VERTEX
  5
50C
330
4FB
100
AcDbEntity
  8
Sichtbare Kanten(TC_020513_DIN)
100
AcDbVertex
100
AcDb2dVertex
 10
101.0400453262661
 20
132.1773614401052
 30
0.0
  0
VERTEX
  5
50D
330
4FB
100
AcDbEntity
  8
Sichtbare Kanten(TC_020513_DIN)
100
AcDbVertex
100
AcDb2dVertex
 10
101.0440245323513
 20
132.177683305187
 30
0.0
  0
VERTEX
  5
50E
330
4FB
100
AcDbEntity
  8
Sichtbare Kanten(TC_020513_DIN)
100
AcDbVertex
100
AcDb2dVertex
 10
101.0479542665813
 20
132.1779407972524
 30
0.0
  0
VERTEX
  5
50F
330
4FB
100
AcDbEntity
  8
Sichtbare Kanten(TC_020513_DIN)
100
AcDbVertex
100
AcDb2dVertex
 10
101.0517987661693
 20
132.178139876766
 30
0.0
  0
VERTEX
  5
510
330
4FB
100
AcDbEntity
  8
Sichtbare Kanten(TC_020513_DIN)
100
AcDbVertex
100
AcDb2dVertex
 10
101.0555228643749
 20
132.1782888883779
 30
0.0
  0
VERTEX
  5
511
330
4FB
100
AcDbEntity
  8
Sichtbare Kanten(TC_020513_DIN)
100
AcDbVertex
100
AcDb2dVertex
 10
101.0590925865505
 20
132.1783949846456
 30
0.0
  0
VERTEX
  5
512
330
4FB
100
AcDbEntity
  8
Sichtbare Kanten(TC_020513_DIN)
100
AcDbVertex
100
AcDb2dVertex
 10
101.0624727659557
 20
132.1784653181264
 30
0.0
  0
VERTEX
  5
513
330
4FB
100
AcDbEntity
  8
Sichtbare Kanten(TC_020513_DIN)
100
AcDbVertex
100
AcDb2dVertex
 10
101.0656276398037
 20
132.1785070413778
 30
0.0
  0
VERTEX
  5
514
330
4FB
100
AcDbEntity
  8
Sichtbare Kanten(TC_020513_DIN)
100
AcDbVertex
100
AcDb2dVertex
 10
101.0685226374004
 20
132.1785261148641
 30
0.0
  0
VERTEX
  5
515
330
4FB
100
AcDbEntity
  8
Sichtbare Kanten(TC_020513_DIN)
100
AcDbVertex
100
AcDb2dVertex
 10
101.0711225920055
 20
132.1785308832357
 30
0.0
  0
SEQEND
  5
4FE
330
4FB
100
AcDbEntity
  8
Sichtbare Kanten(TC_020513_DIN)
  0
LINE
  5
516
330
37
100
AcDbEntity
  8
Sichtbare Kanten(TC_020513_DIN)
100
AcDbLine
 10
71.74809026168458
 20
132.1785307151969
 30
0.0
 11
71.74809026168458
 21
132.0785307151969
 31
0.0
  0
LINE
  5
517
330
37
100
AcDbEntity
  8
Sichtbare Kanten(TC_020513_DIN)
100
AcDbLine
 10
100.9980902616846
 20
132.0785307151969
 30
0.0
 11
100.9980902616846
 21
132.1583965809825
 31
0.0
  0
LINE
  5
518
330
37
100
AcDbEntity
  8
Sichtbare Kanten(TC_020513_DIN)
100
AcDbLine
 10
149.8148156565031
 20
131.2408758001897
 30
0.0
 11
121.0648156565031
 21
131.2408758001896
 31
0.0
  0
ARC
  5
519
330
37
100
AcDbEntity
  8
Sichtbare Kanten(TC_020513_DIN)
100
AcDbCircle
 10
121.0648156565031
 20
131.7408758001896
 30
0.0
 40
0.5000000000000027
100
AcDbArc
 50
180.0
 51
270.0
  0
LINE
  5
51A
330
37
100
AcDbEntity
  8
Sichtbare Kanten(TC_020513_DIN)
100
AcDbLine
 10
120.5648156565031
 20
131.7408758001896
 30
0.0
 11
120.5648156565031
 21
132.0785307151969
 31
0.0
  0
LINE
  5
51B
330
37
100
AcDbEntity
  8
Sichtbare Kanten(TC_020513_DIN)
100
AcDbLine
 10
149.8148156565031
 20
132.0785307151969
 30
0.0
 11
149.8148156565031
 21
131.2408758001897
 31
0.0
  0
LINE
  5
51C
330
37
100
AcDbEntity
  8
Sichtbare Kanten(TC_020513_DIN)
100
AcDbLine
 10
161.1314529590938
 20
134.9785307151969
 30
0.0
 11
161.1314529590939
 21
137.3951680177877
 31
0.0
  0
LINE
  5
51D
330
37
100
AcDbEntity
  8
Sichtbare Kanten(TC_020513_DIN)
100
AcDbLine
 10
161.1314529590938
 20
145.3951680177877
 30
0.0
 11
161.1314529590938
 21
137.3951680177877
 31
0.0
  0
LINE
  5
51E
330
37
100
AcDbEntity
  8
Sichtbare Kanten(TC_020513_DIN)
100
AcDbLine
 10
161.1314529590938
 20
145.3951680177877
 30
0.0
 11
161.1314529590938
 21
145.5735802676952
 31
0.0
  0
LINE
  5
51F
330
37
100
AcDbEntity
  8
Sichtbare Kanten(TC_020513_DIN)
100
AcDbLine
 10
161.1314529590938
 20
150.6871437313667
 30
0.0
 11
161.1314529590938
 21
145.5735802676952
 31
0.0
  0
LINE
  5
520
330
37
100
AcDbEntity
  8
Sichtbare Kanten(TC_020513_DIN)
100
AcDbLine
 10
161.1314529590938
 20
151.3951680177877
 30
0.0
 11
161.1314529590938
 21
150.6871437313667
 31
0.0
  0
LINE
  5
521
330
37
100
AcDbEntity
  8
Sichtbare Kanten(TC_020513_DIN)
100
AcDbLine
 10
161.1314529590938
 20
132.5536595846005
 30
0.0
 11
161.1314529590938
 21
129.6612275931817
 31
0.0
  0
LINE
  5
522
330
37
100
AcDbEntity
  8
Sichtbare Kanten(TC_020513_DIN)
100
AcDbLine
 10
162.5314529590938
 20
134.9785307151969
 30
0.0
 11
162.5314529590938
 21
129.6612275931817
 31
0.0
  0
LINE
  5
523
330
37
100
AcDbEntity
  8
Sichtbare Kanten(TC_020513_DIN)
100
AcDbLine
 10
162.5314529590938
 20
151.3951680177877
 30
0.0
 11
162.5314529590938
 21
150.6871437313667
 31
0.0
  0
LINE
  5
524
330
37
100
AcDbEntity
  8
Sichtbare Kanten(TC_020513_DIN)
100
AcDbLine
 10
162.5314529590938
 20
150.6871437313667
 30
0.0
 11
162.5314529590938
 21
145.5735802676952
 31
0.0
  0
LINE
  5
525
330
37
100
AcDbEntity
  8
Sichtbare Kanten(TC_020513_DIN)
100
AcDbLine
 10
162.5314529590938
 20
145.3951680177877
 30
0.0
 11
162.5314529590938
 21
145.5735802676952
 31
0.0
  0
LINE
  5
526
330
37
100
AcDbEntity
  8
Sichtbare Kanten(TC_020513_DIN)
100
AcDbLine
 10
162.5314529590938
 20
145.3951680177877
 30
0.0
 11
162.5314529590938
 21
137.3951680177877
 31
0.0
  0
LINE
  5
527
330
37
100
AcDbEntity
  8
Sichtbare Kanten(TC_020513_DIN)
100
AcDbLine
 10
162.5314529590939
 20
134.9785307151969
 30
0.0
 11
162.5314529590938
 21
137.3951680177877
 31
0.0
  0
LINE
  5
528
330
37
100
AcDbEntity
  8
Sichtbare Kanten(TC_020513_DIN)
100
AcDbLine
 10
162.5314529590938
 20
145.3951680177877
 30
0.0
 11
161.1314529590939
 21
145.3951680177877
 31
0.0
  0
LINE
  5
529
330
37
100
AcDbEntity
  8
Sichtbare Kanten(TC_020513_DIN)
100
AcDbLine
 10
155.8148156565031
 20
133.5785307151969
 30
0.0
 11
159.7314529590939
 21
133.5785307151969
 31
0.0
  0
LINE
  5
52A
330
37
100
AcDbEntity
  8
Sichtbare Kanten(TC_020513_DIN)
100
AcDbLine
 10
155.8148156565031
 20
132.178530715197
 30
0.0
 11
159.7314529590939
 21
132.1785307151969
 31
0.0
  0
LINE
  5
52B
330
37
100
AcDbEntity
  8
Sichtbare Kanten(TC_020513_DIN)
100
AcDbLine
 10
155.0232708315712
 20
133.5785307151969
 30
0.0
 11
155.8148156565031
 21
133.5785307151969
 31
0.0
  0
LINE
  5
52C
330
37
100
AcDbEntity
  8
Sichtbare Kanten(TC_020513_DIN)
100
AcDbLine
 10
155.0232708315711
 20
132.178530715197
 30
0.0
 11
155.8148156565031
 21
132.178530715197
 31
0.0
  0
LINE
  5
52D
330
37
100
AcDbEntity
  8
Sichtbare Kanten(TC_020513_DIN)
100
AcDbLine
 10
155.0232708315712
 20
133.5785307151969
 30
0.0
 11
148.6909122321156
 21
133.5785307151969
 31
0.0
  0
LINE
  5
52E
330
37
100
AcDbEntity
  8
Sichtbare Kanten(TC_020513_DIN)
100
AcDbLine
 10
155.0232708315712
 20
132.1785307151969
 30
0.0
 11
148.6909122321156
 21
132.1785307151969
 31
0.0
  0
LINE
  5
52F
330
37
100
AcDbEntity
  8
Sichtbare Kanten(TC_020513_DIN)
100
AcDbLine
 10
161.1314529590938
 20
129.6612275931817
 30
0.0
 11
162.5314529590938
 21
129.6612275931817
 31
0.0
  0
LINE
  5
530
330
37
100
AcDbEntity
  8
Sichtbare Kanten(TC_020513_DIN)
100
AcDbLine
 10
161.1314529590938
 20
151.3951680177877
 30
0.0
 11
162.5314529590938
 21
151.3951680177877
 31
0.0
  0
ARC
  5
531
330
37
100
AcDbEntity
  8
Sichtbare Kanten(TC_020513_DIN)
100
AcDbCircle
 10
159.7314529590939
 20
134.9785307151969
 30
0.0
 40
2.799999999999993
100
AcDbArc
 50
270.0
 51
0.0
  0
ARC
  5
532
330
37
100
AcDbEntity
  8
Sichtbare Kanten(TC_020513_DIN)
100
AcDbCircle
 10
159.7314529590939
 20
134.9785307151969
 30
0.0
 40
1.399999999999985
100
AcDbArc
 50
269.9999999999993
 51
0.0
  0
LINE
  5
533
330
37
100
AcDbEntity
  8
Sichtbare Kanten(TC_020513_DIN)
100
AcDbLine
 10
148.6909122321156
 20
132.1785307151969
 30
0.0
 11
72.87199368607208
 21
132.1785307151969
 31
0.0
  0
LINE
  5
534
330
37
100
AcDbEntity
  8
Sichtbare Kanten(TC_020513_DIN)
100
AcDbLine
 10
66.53963508661651
 20
132.178530715197
 30
0.0
 11
72.87199368607208
 21
132.178530715197
 31
0.0
  0
LINE
  5
535
330
37
100
AcDbEntity
  8
Sichtbare Kanten(TC_020513_DIN)
100
AcDbLine
 10
66.53963508661653
 20
132.178530715197
 30
0.0
 11
65.74809026168458
 21
132.178530715197
 31
0.0
  0
LINE
  5
536
330
37
100
AcDbEntity
  8
Sichtbare Kanten(TC_020513_DIN)
100
AcDbLine
 10
65.74809026168458
 20
132.178530715197
 30
0.0
 11
61.83145295909383
 21
132.1785307151969
 31
0.0
  0
LINE
  5
537
330
37
100
AcDbEntity
  8
Sichtbare Kanten(TC_020513_DIN)
100
AcDbLine
 10
148.6909122321156
 20
133.5785307151969
 30
0.0
 11
72.87199368607208
 21
133.5785307151969
 31
0.0
  0
LINE
  5
538
330
37
100
AcDbEntity
  8
Sichtbare Kanten(TC_020513_DIN)
100
AcDbLine
 10
71.74809026168458
 20
131.2408758001896
 30
0.0
 11
100.4980902616846
 21
131.2408758001896
 31
0.0
  0
ARC
  5
539
330
37
100
AcDbEntity
  8
Sichtbare Kanten(TC_020513_DIN)
100
AcDbCircle
 10
100.4980902616846
 20
131.7408758001896
 30
0.0
 40
0.5000000000000027
100
AcDbArc
 50
270.0
 51
0.0
  0
LINE
  5
53A
330
37
100
AcDbEntity
  8
Sichtbare Kanten(TC_020513_DIN)
100
AcDbLine
 10
100.9980902616846
 20
131.7408758001896
 30
0.0
 11
100.9980902616846
 21
132.0785307151969
 31
0.0
  0
LINE
  5
53B
330
37
100
AcDbEntity
  8
Sichtbare Kanten(TC_020513_DIN)
100
AcDbLine
 10
71.74809026168458
 20
132.0785307151969
 30
0.0
 11
71.74809026168458
 21
131.2408758001896
 31
0.0
  0
LINE
  5
53C
330
37
100
AcDbEntity
  8
Sichtbare Kanten(TC_020513_DIN)
100
AcDbLine
 10
65.74809026168458
 20
133.5785307151969
 30
0.0
 11
61.83145295909383
 21
133.5785307151969
 31
0.0
  0
LINE
  5
53D
330
37
100
AcDbEntity
  8
Sichtbare Kanten(TC_020513_DIN)
100
AcDbLine
 10
66.53963508661653
 20
133.5785307151969
 30
0.0
 11
65.74809026168458
 21
133.5785307151969
 31
0.0
  0
LINE
  5
53E
330
37
100
AcDbEntity
  8
Sichtbare Kanten(TC_020513_DIN)
100
AcDbLine
 10
66.53963508661651
 20
133.5785307151969
 30
0.0
 11
72.87199368607208
 21
133.5785307151969
 31
0.0
  0
LINE
  5
53F
330
37
100
AcDbEntity
  8
Sichtbare Kanten(TC_020513_DIN)
100
AcDbLine
 10
60.43145295909384
 20
132.5536595846005
 30
0.0
 11
60.43145295909384
 21
129.6612275931817
 31
0.0
  0
LINE
  5
540
330
37
100
AcDbEntity
  8
Sichtbare Kanten(TC_020513_DIN)
100
AcDbLine
 10
60.43145295909384
 20
151.3951680177877
 30
0.0
 11
60.43145295909384
 21
150.6871437313667
 31
0.0
  0
LINE
  5
541
330
37
100
AcDbEntity
  8
Sichtbare Kanten(TC_020513_DIN)
100
AcDbLine
 10
60.43145295909384
 20
150.6871437313667
 30
0.0
 11
60.43145295909384
 21
145.5735802676952
 31
0.0
  0
LINE
  5
542
330
37
100
AcDbEntity
  8
Sichtbare Kanten(TC_020513_DIN)
100
AcDbLine
 10
60.43145295909384
 20
145.3951680177877
 30
0.0
 11
60.43145295909384
 21
145.5735802676952
 31
0.0
  0
LINE
  5
543
330
37
100
AcDbEntity
  8
Sichtbare Kanten(TC_020513_DIN)
100
AcDbLine
 10
60.43145295909384
 20
145.3951680177877
 30
0.0
 11
60.43145295909384
 21
137.3951680177877
 31
0.0
  0
LINE
  5
544
330
37
100
AcDbEntity
  8
Sichtbare Kanten(TC_020513_DIN)
100
AcDbLine
 10
60.43145295909384
 20
134.9785307151969
 30
0.0
 11
60.43145295909383
 21
137.3951680177877
 31
0.0
  0
LINE
  5
545
330
37
100
AcDbEntity
  8
Sichtbare Kanten(TC_020513_DIN)
100
AcDbLine
 10
59.03145295909383
 20
134.9785307151969
 30
0.0
 11
59.03145295909386
 21
137.3951680177877
 31
0.0
  0
LINE
  5
546
330
37
100
AcDbEntity
  8
Sichtbare Kanten(TC_020513_DIN)
100
AcDbLine
 10
59.03145295909386
 20
145.3951680177877
 30
0.0
 11
59.03145295909386
 21
137.3951680177877
 31
0.0
  0
LINE
  5
547
330
37
100
AcDbEntity
  8
Sichtbare Kanten(TC_020513_DIN)
100
AcDbLine
 10
59.03145295909386
 20
145.3951680177877
 30
0.0
 11
59.03145295909386
 21
145.5735802676952
 31
0.0
  0
LINE
  5
548
330
37
100
AcDbEntity
  8
Sichtbare Kanten(TC_020513_DIN)
100
AcDbLine
 10
59.03145295909386
 20
150.6871437313667
 30
0.0
 11
59.03145295909386
 21
145.5735802676952
 31
0.0
  0
LINE
  5
549
330
37
100
AcDbEntity
  8
Sichtbare Kanten(TC_020513_DIN)
100
AcDbLine
 10
59.03145295909386
 20
151.3951680177877
 30
0.0
 11
59.03145295909386
 21
150.6871437313667
 31
0.0
  0
LINE
  5
54A
330
37
100
AcDbEntity
  8
Sichtbare Kanten(TC_020513_DIN)
100
AcDbLine
 10
59.03145295909386
 20
134.9785307151969
 30
0.0
 11
59.03145295909386
 21
129.6612275931817
 31
0.0
  0
LINE
  5
54B
330
37
100
AcDbEntity
  8
Sichtbare Kanten(TC_020513_DIN)
100
AcDbLine
 10
59.03145295909386
 20
145.3951680177877
 30
0.0
 11
60.43145295909383
 21
145.3951680177877
 31
0.0
  0
LINE
  5
54C
330
37
100
AcDbEntity
  8
Sichtbare Kanten(TC_020513_DIN)
100
AcDbLine
 10
59.03145295909386
 20
129.6612275931817
 30
0.0
 11
60.43145295909384
 21
129.6612275931817
 31
0.0
  0
LINE
  5
54D
330
37
100
AcDbEntity
  8
Sichtbare Kanten(TC_020513_DIN)
100
AcDbLine
 10
59.03145295909386
 20
151.3951680177877
 30
0.0
 11
60.43145295909384
 21
151.3951680177877
 31
0.0
  0
ARC
  5
54E
330
37
100
AcDbEntity
  8
Sichtbare Kanten(TC_020513_DIN)
100
AcDbCircle
 10
61.83145295909383
 20
134.9785307151969
 30
0.0
 40
2.799999999999992
100
AcDbArc
 50
180.0
 51
270.0000000000002
  0
ARC
  5
54F
330
37
100
AcDbEntity
  8
Sichtbare Kanten(TC_020513_DIN)
100
AcDbCircle
 10
61.83145295909383
 20
134.9785307151969
 30
0.0
 40
1.400000000000005
100
AcDbArc
 50
180.0
 51
269.9999999999997
  0
LINE
  5
550
330
37
100
AcDbEntity
  8
Sichtbare Kanten(TC_020513_DIN)
100
AcDbLine
 10
247.1057671784564
 20
161.7561533527827
 30
0.0
 11
247.1057671784564
 21
151.7561533527828
 31
0.0
  0
POLYLINE
  5
551
330
37
100
AcDbEntity
  8
Sichtbare Kanten(TC_020513_DIN)
100
AcDb2dPolyline
 66
     1
 10
0.0
 20
0.0
 30
0.0
 70
   128
  0
VERTEX
  5
552
330
551
100
AcDbEntity
  8
Sichtbare Kanten(TC_020513_DIN)
100
AcDbVertex
100
AcDb2dVertex
 10
244.7890134322309
 20
161.9771482462118
 30
0.0
  0
VERTEX
  5
553
330
551
100
AcDbEntity
  8
Sichtbare Kanten(TC_020513_DIN)
100
AcDbVertex
100
AcDb2dVertex
 10
244.7690673339033
 20
161.9860770219991
 30
0.0
  0
VERTEX
  5
555
330
551
100
AcDbEntity
  8
Sichtbare Kanten(TC_020513_DIN)
100
AcDbVertex
100
AcDb2dVertex
 10
244.7490950095319
 20
161.9950046056936
 30
0.0
  0
VERTEX
  5
556
330
551
100
AcDbEntity
  8
Sichtbare Kanten(TC_020513_DIN)
100
AcDbVertex
100
AcDb2dVertex
 10
244.7291036116742
 20
162.0039321893881
 30
0.0
  0
VERTEX
  5
557
330
551
100
AcDbEntity
  8
Sichtbare Kanten(TC_020513_DIN)
100
AcDbVertex
100
AcDb2dVertex
 10
244.7090883719587
 20
162.0128597730825
 30
0.0
  0
VERTEX
  5
558
330
551
100
AcDbEntity
  8
Sichtbare Kanten(TC_020513_DIN)
100
AcDbVertex
100
AcDb2dVertex
 10
244.6890540587568
 20
162.0217861646841
 30
0.0
  0
VERTEX
  5
559
330
551
100
AcDbEntity
  8
Sichtbare Kanten(TC_020513_DIN)
100
AcDbVertex
100
AcDb2dVertex
 10
244.6690006720686
 20
162.0307137483785
 30
0.0
  0
VERTEX
  5
55A
330
551
100
AcDbEntity
  8
Sichtbare Kanten(TC_020513_DIN)
100
AcDbVertex
100
AcDb2dVertex
 10
244.6489258277082
 20
162.0396401399801
 30
0.0
  0
VERTEX
  5
55B
330
551
100
AcDbEntity
  8
Sichtbare Kanten(TC_020513_DIN)
100
AcDbVertex
100
AcDb2dVertex
 10
244.6288342940473
 20
162.0485677236746
 30
0.0
  0
VERTEX
  5
55C
330
551
100
AcDbEntity
  8
Sichtbare Kanten(TC_020513_DIN)
100
AcDbVertex
100
AcDb2dVertex
 10
244.6087260710859
 20
162.0574941152761
 30
0.0
  0
VERTEX
  5
55D
330
551
100
AcDbEntity
  8
Sichtbare Kanten(TC_020513_DIN)
100
AcDbVertex
100
AcDb2dVertex
 10
244.5886011588239
 20
162.0664216989706
 30
0.0
  0
VERTEX
  5
55E
330
551
100
AcDbEntity
  8
Sichtbare Kanten(TC_020513_DIN)
100
AcDbVertex
100
AcDb2dVertex
 10
244.5684595572614
 20
162.0753504747579
 30
0.0
  0
VERTEX
  5
55F
330
551
100
AcDbEntity
  8
Sichtbare Kanten(TC_020513_DIN)
100
AcDbVertex
100
AcDb2dVertex
 10
244.5483012663984
 20
162.0842792505453
 30
0.0
  0
VERTEX
  5
560
330
551
100
AcDbEntity
  8
Sichtbare Kanten(TC_020513_DIN)
100
AcDbVertex
100
AcDb2dVertex
 10
244.5281334387922
 20
162.0932068342398
 30
0.0
  0
VERTEX
  5
561
330
551
100
AcDbEntity
  8
Sichtbare Kanten(TC_020513_DIN)
100
AcDbVertex
100
AcDb2dVertex
 10
244.507953690257
 20
162.1021356100271
 30
0.0
  0
VERTEX
  5
562
330
551
100
AcDbEntity
  8
Sichtbare Kanten(TC_020513_DIN)
100
AcDbVertex
100
AcDb2dVertex
 10
244.4877644049787
 20
162.1110631937215
 30
0.0
  0
VERTEX
  5
563
330
551
100
AcDbEntity
  8
Sichtbare Kanten(TC_020513_DIN)
100
AcDbVertex
100
AcDb2dVertex
 10
244.467567967143
 20
162.119990777416
 30
0.0
  0
VERTEX
  5
564
330
551
100
AcDbEntity
  8
Sichtbare Kanten(TC_020513_DIN)
100
AcDbVertex
100
AcDb2dVertex
 10
244.4473619925641
 20
162.1289171690176
 30
0.0
  0
VERTEX
  5
565
330
551
100
AcDbEntity
  8
Sichtbare Kanten(TC_020513_DIN)
100
AcDbVertex
100
AcDb2dVertex
 10
244.4271488654279
 20
162.137844752712
 30
0.0
  0
VERTEX
  5
566
330
551
100
AcDbEntity
  8
Sichtbare Kanten(TC_020513_DIN)
100
AcDbVertex
100
AcDb2dVertex
 10
244.4069285857343
 20
162.1467711443136
 30
0.0
  0
VERTEX
  5
567
330
551
100
AcDbEntity
  8
Sichtbare Kanten(TC_020513_DIN)
100
AcDbVertex
100
AcDb2dVertex
 10
244.3867059218549
 20
162.1556975359152
 30
0.0
  0
VERTEX
  5
568
330
551
100
AcDbEntity
  8
Sichtbare Kanten(TC_020513_DIN)
100
AcDbVertex
100
AcDb2dVertex
 10
244.3664761054181
 20
162.1646251196096
 30
0.0
  0
VERTEX
  5
569
330
551
100
AcDbEntity
  8
Sichtbare Kanten(TC_020513_DIN)
100
AcDbVertex
100
AcDb2dVertex
 10
244.3462415206098
 20
162.1735527033041
 30
0.0
  0
VERTEX
  5
56A
330
551
100
AcDbEntity
  8
Sichtbare Kanten(TC_020513_DIN)
100
AcDbVertex
100
AcDb2dVertex
 10
244.3260069358014
 20
162.1824814790914
 30
0.0
  0
VERTEX
  5
56B
330
551
100
AcDbEntity
  8
Sichtbare Kanten(TC_020513_DIN)
100
AcDbVertex
100
AcDb2dVertex
 10
244.3057675826215
 20
162.1914090627859
 30
0.0
  0
SEQEND
  5
554
330
551
100
AcDbEntity
  8
Sichtbare Kanten(TC_020513_DIN)
  0
POLYLINE
  5
56C
330
37
100
AcDbEntity
  8
Sichtbare Kanten(TC_020513_DIN)
100
AcDb2dPolyline
 66
     1
 10
0.0
 20
0.0
 30
0.0
 70
   128
  0
VERTEX
  5
56D
330
56C
100
AcDbEntity
  8
Sichtbare Kanten(TC_020513_DIN)
100
AcDbVertex
100
AcDb2dVertex
 10
245.7982655036116
 20
161.756153296871
 30
0.0
  0
VERTEX
  5
56E
330
56C
100
AcDbEntity
  8
Sichtbare Kanten(TC_020513_DIN)
100
AcDbVertex
100
AcDb2dVertex
 10
245.7505078780318
 20
161.7566921228597
 30
0.0
  0
VERTEX
  5
570
330
56C
100
AcDbEntity
  8
Sichtbare Kanten(TC_020513_DIN)
100
AcDbVertex
100
AcDb2dVertex
 10
245.7022185790206
 20
161.7583121771047
 30
0.0
  0
VERTEX
  5
571
330
56C
100
AcDbEntity
  8
Sichtbare Kanten(TC_020513_DIN)
100
AcDbVertex
100
AcDb2dVertex
 10
245.6534286009932
 20
161.7610182279775
 30
0.0
  0
VERTEX
  5
572
330
56C
100
AcDbEntity
  8
Sichtbare Kanten(TC_020513_DIN)
100
AcDbVertex
100
AcDb2dVertex
 10
245.6041737067366
 20
161.7648150438497
 30
0.0
  0
VERTEX
  5
573
330
56C
100
AcDbEntity
  8
Sichtbare Kanten(TC_020513_DIN)
100
AcDbVertex
100
AcDb2dVertex
 10
245.5544896590376
 20
161.7697050089071
 30
0.0
  0
VERTEX
  5
574
330
56C
100
AcDbEntity
  8
Sichtbare Kanten(TC_020513_DIN)
100
AcDbVertex
100
AcDb2dVertex
 10
245.5044122206831
 20
161.7756940836141
 30
0.0
  0
VERTEX
  5
575
330
56C
100
AcDbEntity
  8
Sichtbare Kanten(TC_020513_DIN)
100
AcDbVertex
100
AcDb2dVertex
 10
245.4539700019026
 20
161.7827858442495
 30
0.0
  0
VERTEX
  5
576
330
56C
100
AcDbEntity
  8
Sichtbare Kanten(TC_020513_DIN)
100
AcDbVertex
100
AcDb2dVertex
 10
245.4032035338545
 20
161.7909850591848
 30
0.0
  0
VERTEX
  5
577
330
56C
100
AcDbEntity
  8
Sichtbare Kanten(TC_020513_DIN)
100
AcDbVertex
100
AcDb2dVertex
 10
245.3521438109541
 20
161.8002953046987
 30
0.0
  0
VERTEX
  5
578
330
56C
100
AcDbEntity
  8
Sichtbare Kanten(TC_020513_DIN)
100
AcDbVertex
100
AcDb2dVertex
 10
245.3008575904036
 20
161.8107165807913
 30
0.0
  0
VERTEX
  5
579
330
56C
100
AcDbEntity
  8
Sichtbare Kanten(TC_020513_DIN)
100
AcDbVertex
100
AcDb2dVertex
 10
245.2506061064863
 20
161.8219985479543
 30
0.0
  0
VERTEX
  5
57A
330
56C
100
AcDbEntity
  8
Sichtbare Kanten(TC_020513_DIN)
100
AcDbVertex
100
AcDb2dVertex
 10
245.2020831572676
 20
161.833912324352
 30
0.0
  0
VERTEX
  5
57B
330
56C
100
AcDbEntity
  8
Sichtbare Kanten(TC_020513_DIN)
100
AcDbVertex
100
AcDb2dVertex
 10
245.155384110179
 20
161.8463220113943
 30
0.0
  0
VERTEX
  5
57C
330
56C
100
AcDbEntity
  8
Sichtbare Kanten(TC_020513_DIN)
100
AcDbVertex
100
AcDb2dVertex
 10
245.1106019484663
 20
161.8590940946767
 30
0.0
  0
VERTEX
  5
57D
330
56C
100
AcDbEntity
  8
Sichtbare Kanten(TC_020513_DIN)
100
AcDbVertex
100
AcDb2dVertex
 10
245.0678320395613
 20
161.8720938677023
 30
0.0
  0
VERTEX
  5
57E
330
56C
100
AcDbEntity
  8
Sichtbare Kanten(TC_020513_DIN)
100
AcDbVertex
100
AcDb2dVertex
 10
245.0271673667097
 20
161.8851866239736
 30
0.0
  0
VERTEX
  5
57F
330
56C
100
AcDbEntity
  8
Sichtbare Kanten(TC_020513_DIN)
100
AcDbVertex
100
AcDb2dVertex
 10
244.9887032973432
 20
161.8982388490865
 30
0.0
  0
VERTEX
  5
580
330
56C
100
AcDbEntity
  8
Sichtbare Kanten(TC_020513_DIN)
100
AcDbVertex
100
AcDb2dVertex
 10
244.9525375830793
 20
161.9111146444509
 30
0.0
  0
VERTEX
  5
581
330
56C
100
AcDbEntity
  8
Sichtbare Kanten(TC_020513_DIN)
100
AcDbVertex
100
AcDb2dVertex
 10
244.9187584387922
 20
161.9236804956625
 30
0.0
  0
VERTEX
  5
582
330
56C
100
AcDbEntity
  8
Sichtbare Kanten(TC_020513_DIN)
100
AcDbVertex
100
AcDb2dVertex
 10
244.8874636160993
 20
161.9358005041311
 30
0.0
  0
VERTEX
  5
583
330
56C
100
AcDbEntity
  8
Sichtbare Kanten(TC_020513_DIN)
100
AcDbVertex
100
AcDb2dVertex
 10
244.8587484824323
 20
161.9473423475454
 30
0.0
  0
VERTEX
  5
584
330
56C
100
AcDbEntity
  8
Sichtbare Kanten(TC_020513_DIN)
100
AcDbVertex
100
AcDb2dVertex
 10
244.832706021037
 20
161.9581701273153
 30
0.0
  0
VERTEX
  5
585
330
56C
100
AcDbEntity
  8
Sichtbare Kanten(TC_020513_DIN)
100
AcDbVertex
100
AcDb2dVertex
 10
244.8094292151594
 20
161.9681503290365
 30
0.0
  0
VERTEX
  5
586
330
56C
100
AcDbEntity
  8
Sichtbare Kanten(TC_020513_DIN)
100
AcDbVertex
100
AcDb2dVertex
 10
244.7890134322309
 20
161.9771482462118
 30
0.0
  0
SEQEND
  5
56F
330
56C
100
AcDbEntity
  8
Sichtbare Kanten(TC_020513_DIN)
  0
LINE
  5
587
330
37
100
AcDbEntity
  8
Sichtbare Kanten(TC_020513_DIN)
100
AcDbLine
 10
247.1057671784564
 20
151.7561533527827
 30
0.0
 11
244.3057671784556
 21
151.7561533527827
 31
0.0
  0
LINE
  5
588
330
37
100
AcDbEntity
  8
Sichtbare Kanten(TC_020513_DIN)
100
AcDbLine
 10
245.7982658260414
 20
161.7561533527826
 30
0.0
 11
247.1057671784565
 21
161.7561533527827
 31
0.0
  0
LINE
  5
589
330
37
100
AcDbEntity
  8
Sichtbare Kanten(TC_020513_DIN)
100
AcDbLine
 10
247.1057671784594
 20
151.5708581140584
 30
0.0
 11
247.1057671784593
 21
151.7561533527827
 31
0.0
  0
LINE
  5
58A
330
37
100
AcDbEntity
  8
Sichtbare Kanten(TC_020513_DIN)
100
AcDbLine
 10
247.1057671784595
 20
150.1959763242853
 30
0.0
 11
247.1057671784594
 21
151.5708581140584
 31
0.0
  0
LINE
  5
58B
330
37
100
AcDbEntity
  8
Sichtbare Kanten(TC_020513_DIN)
100
AcDbLine
 10
217.3391298758649
 20
134.3951680177877
 30
0.0
 11
217.3391298758649
 21
134.2575131027803
 31
0.0
  0
LINE
  5
58C
330
37
100
AcDbEntity
  8
Sichtbare Kanten(TC_020513_DIN)
100
AcDbLine
 10
217.3752705374994
 20
134.3951680177877
 30
0.0
 11
217.3391298758649
 21
134.3951680177877
 31
0.0
  0
LINE
  5
58D
330
37
100
AcDbEntity
  8
Sichtbare Kanten(TC_020513_DIN)
100
AcDbLine
 10
228.3272756375845
 20
147.4387458891615
 30
0.0
 11
228.200175282259
 21
145.9859821800908
 31
0.0
  0
ARC
  5
58E
330
37
100
AcDbEntity
  8
Sichtbare Kanten(TC_020513_DIN)
100
AcDbCircle
 10
228.8253729866304
 20
147.3951680177877
 30
0.0
 40
0.4999999999999966
100
AcDbArc
 50
128.3440606646371
 51
175.0000000000015
  0
LINE
  5
58F
330
37
100
AcDbEntity
  8
Sichtbare Kanten(TC_020513_DIN)
100
AcDbLine
 10
238.6289387036723
 20
155.7873177808805
 30
0.0
 11
228.5151818144378
 21
147.7873177808805
 31
0.0
  0
ARC
  5
590
330
37
100
AcDbEntity
  8
Sichtbare Kanten(TC_020513_DIN)
100
AcDbCircle
 10
238.9391298758649
 20
155.3951680177877
 30
0.0
 40
0.4999999999999986
100
AcDbArc
 50
38.34406066463298
 51
128.3440606646314
  0
LINE
  5
591
330
37
100
AcDbEntity
  8
Sichtbare Kanten(TC_020513_DIN)
100
AcDbLine
 10
242.1548303496792
 20
152.1357710083975
 30
0.0
 11
239.3312796389578
 21
155.7053591899803
 31
0.0
  0
ARC
  5
592
330
37
100
AcDbEntity
  8
Sichtbare Kanten(TC_020513_DIN)
100
AcDbCircle
 10
242.9391298758649
 20
152.7561533527827
 30
0.0
 40
0.9999999999999875
100
AcDbArc
 50
218.3440606646322
 51
270.0
  0
LINE
  5
593
330
37
100
AcDbEntity
  8
Sichtbare Kanten(TC_020513_DIN)
100
AcDbLine
 10
244.3057671784557
 20
151.7561533527827
 30
0.0
 11
242.9391298758649
 21
151.7561533527827
 31
0.0
  0
LINE
  5
594
330
37
100
AcDbEntity
  8
Sichtbare Kanten(TC_020513_DIN)
100
AcDbLine
 10
240.9645754022939
 20
164.2386292865778
 30
0.0
 11
244.3057671784557
 21
162.1914096019791
 31
0.0
  0
ARC
  5
595
330
37
100
AcDbEntity
  8
Sichtbare Kanten(TC_020513_DIN)
100
AcDbCircle
 10
222.6788481950368
 20
134.3951680177877
 30
0.0
 40
35.00000000000002
100
AcDbArc
 50
58.50330715785382
 51
90.0
  0
LINE
  5
596
330
37
100
AcDbEntity
  8
Sichtbare Kanten(TC_020513_DIN)
100
AcDbLine
 10
214.6788481950368
 20
169.3951680177877
 30
0.0
 11
222.6788481950368
 21
169.3951680177877
 31
0.0
  0
ARC
  5
597
330
37
100
AcDbEntity
  8
Sichtbare Kanten(TC_020513_DIN)
100
AcDbCircle
 10
214.6788481950368
 20
165.0951680177877
 30
0.0
 40
4.3
100
AcDbArc
 50
90.00000000000047
 51
298.95502437186
  0
ARC
  5
598
330
37
100
AcDbEntity
  8
Sichtbare Kanten(TC_020513_DIN)
100
AcDbCircle
 10
218.9391298758649
 20
157.3951680177876
 30
0.0
 40
4.5
100
AcDbArc
 50
20.26853458427464
 51
118.9550243718597
  0
LINE
  5
599
330
37
100
AcDbEntity
  8
Sichtbare Kanten(TC_020513_DIN)
100
AcDbLine
 10
224.2261318315346
 20
156.0683782848019
 30
0.0
 11
223.1604868230409
 21
158.9540604209153
 31
0.0
  0
ARC
  5
59A
330
37
100
AcDbEntity
  8
Sichtbare Kanten(TC_020513_DIN)
100
AcDbCircle
 10
223.7570921707372
 20
155.8951680177877
 30
0.0
 40
0.5000000000000007
100
AcDbArc
 50
325.2685345842743
 51
20.26853458427325
  0
LINE
  5
59B
330
37
100
AcDbEntity
  8
Sichtbare Kanten(TC_020513_DIN)
100
AcDbLine
 10
221.9391298758649
 20
152.3951680177877
 30
0.0
 11
224.1680078122012
 21
155.6103025484863
 31
0.0
  0
LINE
  5
59C
330
37
100
AcDbEntity
  8
Sichtbare Kanten(TC_020513_DIN)
100
AcDbLine
 10
221.9391298758649
 20
150.7197233381245
 30
0.0
 11
221.9391298758649
 21
152.3951680177877
 31
0.0
  0
LINE
  5
59D
330
37
100
AcDbEntity
  8
Sichtbare Kanten(TC_020513_DIN)
100
AcDbLine
 10
214.4391298758649
 20
134.2575131027803
 30
0.0
 11
214.4391298758649
 21
134.2965558366537
 31
0.0
  0
LINE
  5
59E
330
37
100
AcDbEntity
  8
Sichtbare Kanten(TC_020513_DIN)
100
AcDbLine
 10
245.7057671784594
 20
151.5708581140584
 30
0.0
 11
245.7057671784595
 21
150.1959763242853
 31
0.0
  0
LINE
  5
59F
330
37
100
AcDbEntity
  8
Sichtbare Kanten(TC_020513_DIN)
100
AcDbLine
 10
245.7057671784593
 20
151.7561533527827
 30
0.0
 11
245.7057671784594
 21
151.5708581140584
 31
0.0
  0
LINE
  5
5A0
330
37
100
AcDbEntity
  8
Sichtbare Kanten(TC_020513_DIN)
100
AcDbLine
 10
253.4400425712561
 20
162.9727906553735
 30
0.0
 11
254.9224044810516
 21
162.9727906553735
 31
0.0
  0
LINE
  5
5A1
330
37
100
AcDbEntity
  8
Sichtbare Kanten(TC_020513_DIN)
100
AcDbLine
 10
254.9224044810516
 20
161.5727906553735
 30
0.0
 11
253.4400425712561
 21
161.5727906553735
 31
0.0
  0
LINE
  5
5A2
330
37
100
AcDbEntity
  8
Sichtbare Kanten(TC_020513_DIN)
100
AcDbLine
 10
254.9224044810516
 20
161.5727906553735
 30
0.0
 11
254.9224044810516
 21
162.9727906553735
 31
0.0
  0
LINE
  5
5A3
330
37
100
AcDbEntity
  8
Sichtbare Kanten(TC_020513_DIN)
100
AcDbLine
 10
248.5057671784599
 20
161.5727906553735
 30
0.0
 11
253.4400425712561
 21
161.5727906553735
 31
0.0
  0
LINE
  5
5A4
330
37
100
AcDbEntity
  8
Sichtbare Kanten(TC_020513_DIN)
100
AcDbLine
 10
253.4400425712561
 20
162.9727906553735
 30
0.0
 11
248.5057671784599
 21
162.9727906553735
 31
0.0
  0
LINE
  5
5A5
330
37
100
AcDbEntity
  8
Sichtbare Kanten(TC_020513_DIN)
100
AcDbLine
 10
217.3391298758642
 20
134.1575131027803
 30
0.0
 11
217.3391298758641
 21
132.7575131027803
 31
0.0
  0
LINE
  5
5A6
330
37
100
AcDbEntity
  8
Sichtbare Kanten(TC_020513_DIN)
100
AcDbLine
 10
217.3391298758641
 20
132.7575131027803
 30
0.0
 11
216.839129875864
 21
132.7575131027803
 31
0.0
  0
LINE
  5
5A7
330
37
100
AcDbEntity
  8
Sichtbare Kanten(TC_020513_DIN)
100
AcDbLine
 10
216.8391298758641
 20
134.1575131027803
 30
0.0
 11
217.3391298758641
 21
134.1575131027803
 31
0.0
  0
LINE
  5
5A8
330
37
100
AcDbEntity
  8
Sichtbare Kanten(TC_020513_DIN)
100
AcDbLine
 10
214.939129875864
 20
132.7575131027803
 30
0.0
 11
216.8391298758641
 21
132.7575131027803
 31
0.0
  0
LINE
  5
5A9
330
37
100
AcDbEntity
  8
Sichtbare Kanten(TC_020513_DIN)
100
AcDbLine
 10
216.8391298758641
 20
134.1575131027803
 30
0.0
 11
214.939129875864
 21
134.1575131027803
 31
0.0
  0
LINE
  5
5AA
330
37
100
AcDbEntity
  8
Sichtbare Kanten(TC_020513_DIN)
100
AcDbLine
 10
214.939129875864
 20
132.7575131027803
 30
0.0
 11
214.4391298758641
 21
132.7575131027803
 31
0.0
  0
LINE
  5
5AB
330
37
100
AcDbEntity
  8
Sichtbare Kanten(TC_020513_DIN)
100
AcDbLine
 10
214.4391298758641
 20
134.1575131027803
 30
0.0
 11
214.939129875864
 21
134.1575131027803
 31
0.0
  0
LINE
  5
5AC
330
37
100
AcDbEntity
  8
Sichtbare Kanten(TC_020513_DIN)
100
AcDbLine
 10
214.4391298758641
 20
134.1575131027803
 30
0.0
 11
214.4391298758641
 21
132.7575131027803
 31
0.0
  0
LINE
  5
5AD
330
37
100
AcDbEntity
  8
Sichtbare Kanten(TC_020513_DIN)
100
AcDbLine
 10
249.1631742489935
 20
142.1607978791085
 30
0.0
 11
248.5367010354048
 21
143.5042740211622
 31
0.0
  0
LINE
  5
5AE
330
37
100
AcDbEntity
  8
Sichtbare Kanten(TC_020513_DIN)
100
AcDbLine
 10
250.4320051508449
 20
142.7524634455455
 30
0.0
 11
249.1631742489935
 21
142.1607978791085
 31
0.0
  0
LINE
  5
5AF
330
37
100
AcDbEntity
  8
Sichtbare Kanten(TC_020513_DIN)
100
AcDbLine
 10
249.8055319372561
 20
144.0959395875992
 30
0.0
 11
250.4320051508448
 21
142.7524634455455
 31
0.0
  0
LINE
  5
5B0
330
37
100
AcDbEntity
  8
Sichtbare Kanten(TC_020513_DIN)
100
AcDbLine
 10
245.9681053747569
 20
149.0126451914114
 30
0.0
 11
248.5367010354048
 21
143.5042740211622
 31
0.0
  0
LINE
  5
5B1
330
37
100
AcDbEntity
  8
Sichtbare Kanten(TC_020513_DIN)
100
AcDbLine
 10
249.8055319372561
 20
144.0959395875992
 30
0.0
 11
247.2369362766082
 21
149.6043107578483
 31
0.0
  0
POLYLINE
  5
5B2
330
37
100
AcDbEntity
  8
Sichtbare Kanten(TC_020513_DIN)
100
AcDb2dPolyline
 66
     1
 10
0.0
 20
0.0
 30
0.0
 70
   128
  0
VERTEX
  5
5B3
330
5B2
100
AcDbEntity
  8
Sichtbare Kanten(TC_020513_DIN)
100
AcDbVertex
100
AcDb2dVertex
 10
245.9681053626241
 20
149.012645077152
 30
0.0
  0
VERTEX
  5
5B4
330
5B2
100
AcDbEntity
  8
Sichtbare Kanten(TC_020513_DIN)
100
AcDbVertex
100
AcDb2dVertex
 10
245.9469957816305
 20
149.0590094441602
 30
0.0
  0
VERTEX
  5
5B6
330
5B2
100
AcDbEntity
  8
Sichtbare Kanten(TC_020513_DIN)
100
AcDbVertex
100
AcDb2dVertex
 10
245.9267445075216
 20
149.1057305449674
 30
0.0
  0
VERTEX
  5
5B7
330
5B2
100
AcDbEntity
  8
Sichtbare Kanten(TC_020513_DIN)
100
AcDbVertex
100
AcDb2dVertex
 10
245.9073491561117
 20
149.1527967566678
 30
0.0
  0
VERTEX
  5
5B8
330
5B2
100
AcDbEntity
  8
Sichtbare Kanten(TC_020513_DIN)
100
AcDbVertex
100
AcDb2dVertex
 10
245.8888192641439
 20
149.2001958603093
 30
0.0
  0
VERTEX
  5
5B9
330
5B2
100
AcDbEntity
  8
Sichtbare Kanten(TC_020513_DIN)
100
AcDbVertex
100
AcDb2dVertex
 10
245.8711548316183
 20
149.2479162329862
 30
0.0
  0
VERTEX
  5
5BA
330
5B2
100
AcDbEntity
  8
Sichtbare Kanten(TC_020513_DIN)
100
AcDbVertex
100
AcDb2dVertex
 10
245.8543630110922
 20
149.2959459537694
 30
0.0
  0
VERTEX
  5
5BB
330
5B2
100
AcDbEntity
  8
Sichtbare Kanten(TC_020513_DIN)
100
AcDbVertex
100
AcDb2dVertex
 10
245.8384461867514
 20
149.3442725056836
 30
0.0
  0
VERTEX
  5
5BC
330
5B2
100
AcDbEntity
  8
Sichtbare Kanten(TC_020513_DIN)
100
AcDbVertex
100
AcDb2dVertex
 10
245.8234091269674
 20
149.3928845638463
 30
0.0
  0
VERTEX
  5
5BD
330
5B2
100
AcDbEntity
  8
Sichtbare Kanten(TC_020513_DIN)
100
AcDbVertex
100
AcDb2dVertex
 10
245.8092566001119
 20
149.4417699093053
 30
0.0
  0
VERTEX
  5
5BE
330
5B2
100
AcDbEntity
  8
Sichtbare Kanten(TC_020513_DIN)
100
AcDbVertex
100
AcDb2dVertex
 10
245.7959909903707
 20
149.4909163231084
 30
0.0
  0
VERTEX
  5
5BF
330
5B2
100
AcDbEntity
  8
Sichtbare Kanten(TC_020513_DIN)
100
AcDbVertex
100
AcDb2dVertex
 10
245.7836170661154
 20
149.5403118843267
 30
0.0
  0
VERTEX
  5
5C0
330
5B2
100
AcDbEntity
  8
Sichtbare Kanten(TC_020513_DIN)
100
AcDbVertex
100
AcDb2dVertex
 10
245.7721372115316
 20
149.5899452680776
 30
0.0
  0
VERTEX
  5
5C1
330
5B2
100
AcDbEntity
  8
Sichtbare Kanten(TC_020513_DIN)
100
AcDbVertex
100
AcDb2dVertex
 10
245.7615657317342
 20
149.6397795194814
 30
0.0
  0
VERTEX
  5
5C2
330
5B2
100
AcDbEntity
  8
Sichtbare Kanten(TC_020513_DIN)
100
AcDbVertex
100
AcDb2dVertex
 10
245.7519050109091
 20
149.6897764915655
 30
0.0
  0
VERTEX
  5
5C3
330
5B2
100
AcDbEntity
  8
Sichtbare Kanten(TC_020513_DIN)
100
AcDbVertex
100
AcDb2dVertex
 10
245.7431574332418
 20
149.7399248594472
 30
0.0
  0
VERTEX
  5
5C4
330
5B2
100
AcDbEntity
  8
Sichtbare Kanten(TC_020513_DIN)
100
AcDbVertex
100
AcDb2dVertex
 10
245.7353229987325
 20
149.7902115101049
 30
0.0
  0
VERTEX
  5
5C5
330
5B2
100
AcDbEntity
  8
Sichtbare Kanten(TC_020513_DIN)
100
AcDbVertex
100
AcDb2dVertex
 10
245.7284088599386
 20
149.8406233305166
 30
0.0
  0
VERTEX
  5
5C6
330
5B2
100
AcDbEntity
  8
Sichtbare Kanten(TC_020513_DIN)
100
AcDbVertex
100
AcDb2dVertex
 10
245.7224102484884
 20
149.8911489957998
 30
0.0
  0
VERTEX
  5
5C7
330
5B2
100
AcDbEntity
  8
Sichtbare Kanten(TC_020513_DIN)
100
AcDbVertex
100
AcDb2dVertex
 10
245.7173295485677
 20
149.9417753929327
 30
0.0
  0
VERTEX
  5
5C8
330
5B2
100
AcDbEntity
  8
Sichtbare Kanten(TC_020513_DIN)
100
AcDbVertex
100
AcDb2dVertex
 10
245.7131715285482
 20
149.9924894088933
 30
0.0
  0
VERTEX
  5
5C9
330
5B2
100
AcDbEntity
  8
Sichtbare Kanten(TC_020513_DIN)
100
AcDbVertex
100
AcDb2dVertex
 10
245.709933804244
 20
150.0432791227529
 30
0.0
  0
VERTEX
  5
5CA
330
5B2
100
AcDbEntity
  8
Sichtbare Kanten(TC_020513_DIN)
100
AcDbVertex
100
AcDb2dVertex
 10
245.7076211440267
 20
150.0941320175359
 30
0.0
  0
VERTEX
  5
5CB
330
5B2
100
AcDbEntity
  8
Sichtbare Kanten(TC_020513_DIN)
100
AcDbVertex
100
AcDb2dVertex
 10
245.7062311637105
 20
150.1450349802206
 30
0.0
  0
VERTEX
  5
5CC
330
5B2
100
AcDbEntity
  8
Sichtbare Kanten(TC_020513_DIN)
100
AcDbVertex
100
AcDb2dVertex
 10
245.7057662474813
 20
150.1959760898778
 30
0.0
  0
SEQEND
  5
5B5
330
5B2
100
AcDbEntity
  8
Sichtbare Kanten(TC_020513_DIN)
  0
LINE
  5
5CD
330
37
100
AcDbEntity
  8
Sichtbare Kanten(TC_020513_DIN)
100
AcDbLine
 10
246.6786471878492
 20
149.3439762802956
 30
0.0
 11
245.9681053747569
 21
149.0126451914114
 31
0.0
  0
LINE
  5
5CE
330
37
100
AcDbEntity
  8
Sichtbare Kanten(TC_020513_DIN)
100
AcDbLine
 10
247.2369362766082
 20
149.6043107578483
 30
0.0
 11
246.6786471878492
 21
149.3439762802956
 31
0.0
  0
POLYLINE
  5
5CF
330
37
100
AcDbEntity
  8
Sichtbare Kanten(TC_020513_DIN)
100
AcDb2dPolyline
 66
     1
 10
0.0
 20
0.0
 30
0.0
 70
   128
  0
VERTEX
  5
5D0
330
5CF
100
AcDbEntity
  8
Sichtbare Kanten(TC_020513_DIN)
100
AcDbVertex
100
AcDb2dVertex
 10
247.105767296523
 20
150.1959760898778
 30
0.0
  0
VERTEX
  5
5D1
330
5CF
100
AcDbEntity
  8
Sichtbare Kanten(TC_020513_DIN)
100
AcDbVertex
100
AcDb2dVertex
 10
247.1059985625448
 20
150.1705058330724
 30
0.0
  0
VERTEX
  5
5D3
330
5CF
100
AcDbEntity
  8
Sichtbare Kanten(TC_020513_DIN)
100
AcDbVertex
100
AcDb2dVertex
 10
247.1066947447957
 20
150.1450540537069
 30
0.0
  0
VERTEX
  5
5D4
330
5CF
100
AcDbEntity
  8
Sichtbare Kanten(TC_020513_DIN)
100
AcDbVertex
100
AcDb2dVertex
 10
247.1078510749044
 20
150.1196279043386
 30
0.0
  0
VERTEX
  5
5D5
330
5CF
100
AcDbEntity
  8
Sichtbare Kanten(TC_020513_DIN)
100
AcDbVertex
100
AcDb2dVertex
 10
247.1094699370565
 20
150.0942327493856
 30
0.0
  0
VERTEX
  5
5D6
330
5CF
100
AcDbEntity
  8
Sichtbare Kanten(TC_020513_DIN)
100
AcDbVertex
100
AcDb2dVertex
 10
247.1115489470662
 20
150.0688757414052
 30
0.0
  0
VERTEX
  5
5D7
330
5CF
100
AcDbEntity
  8
Sichtbare Kanten(TC_020513_DIN)
100
AcDbVertex
100
AcDb2dVertex
 10
247.1140881049337
 20
150.043562840862
 30
0.0
  0
VERTEX
  5
5D8
330
5CF
100
AcDbEntity
  8
Sichtbare Kanten(TC_020513_DIN)
100
AcDbVertex
100
AcDb2dVertex
 10
247.1170874106588
 20
150.0183000082204
 30
0.0
  0
VERTEX
  5
5D9
330
5CF
100
AcDbEntity
  8
Sichtbare Kanten(TC_020513_DIN)
100
AcDbVertex
100
AcDb2dVertex
 10
247.1205444800558
 20
149.9930937999914
 30
0.0
  0
VERTEX
  5
5DA
330
5CF
100
AcDbEntity
  8
Sichtbare Kanten(TC_020513_DIN)
100
AcDbVertex
100
AcDb2dVertex
 10
247.1244616973104
 20
149.9679507726858
 30
0.0
  0
VERTEX
  5
5DB
330
5CF
100
AcDbEntity
  8
Sichtbare Kanten(TC_020513_DIN)
100
AcDbVertex
100
AcDb2dVertex
 10
247.1288366782369
 20
149.9428762907216
 30
0.0
  0
VERTEX
  5
5DC
330
5CF
100
AcDbEntity
  8
Sichtbare Kanten(TC_020513_DIN)
100
AcDbVertex
100
AcDb2dVertex
 10
247.1336670386495
 20
149.9178781027028
 30
0.0
  0
VERTEX
  5
5DD
330
5CF
100
AcDbEntity
  8
Sichtbare Kanten(TC_020513_DIN)
100
AcDbVertex
100
AcDb2dVertex
 10
247.1389527785482
 20
149.8929609770009
 30
0.0
  0
VERTEX
  5
5DE
330
5CF
100
AcDbEntity
  8
Sichtbare Kanten(TC_020513_DIN)
100
AcDbVertex
100
AcDb2dVertex
 10
247.1446915137472
 20
149.8681439871023
 30
0.0
  0
VERTEX
  5
5DF
330
5CF
100
AcDbEntity
  8
Sichtbare Kanten(TC_020513_DIN)
100
AcDbVertex
100
AcDb2dVertex
 10
247.1508784758749
 20
149.8434462064931
 30
0.0
  0
VERTEX
  5
5E0
330
5CF
100
AcDbEntity
  8
Sichtbare Kanten(TC_020513_DIN)
100
AcDbVertex
100
AcDb2dVertex
 10
247.1575112807455
 20
149.8188729995916
 30
0.0
  0
VERTEX
  5
5E1
330
5CF
100
AcDbEntity
  8
Sichtbare Kanten(TC_020513_DIN)
100
AcDbVertex
100
AcDb2dVertex
 10
247.1645875441732
 20
149.7944303268621
 30
0.0
  0
VERTEX
  5
5E2
330
5CF
100
AcDbEntity
  8
Sichtbare Kanten(TC_020513_DIN)
100
AcDbVertex
100
AcDb2dVertex
 10
247.1721072661581
 20
149.7701241487691
 30
0.0
  0
VERTEX
  5
5E3
330
5CF
100
AcDbEntity
  8
Sichtbare Kanten(TC_020513_DIN)
100
AcDbVertex
100
AcDb2dVertex
 10
247.1800656783285
 20
149.7459610218236
 30
0.0
  0
VERTEX
  5
5E4
330
5CF
100
AcDbEntity
  8
Sichtbare Kanten(TC_020513_DIN)
100
AcDbVertex
100
AcDb2dVertex
 10
247.1884603964987
 20
149.7219463104436
 30
0.0
  0
VERTEX
  5
5E5
330
5CF
100
AcDbEntity
  8
Sichtbare Kanten(TC_020513_DIN)
100
AcDbVertex
100
AcDb2dVertex
 10
247.1972938048544
 20
149.6980859750936
 30
0.0
  0
VERTEX
  5
5E6
330
5CF
100
AcDbEntity
  8
Sichtbare Kanten(TC_020513_DIN)
100
AcDbVertex
100
AcDb2dVertex
 10
247.2065587508383
 20
149.6743865722845
 30
0.0
  0
VERTEX
  5
5E7
330
5CF
100
AcDbEntity
  8
Sichtbare Kanten(TC_020513_DIN)
100
AcDbVertex
100
AcDb2dVertex
 10
247.2162552344503
 20
149.6508534664342
 30
0.0
  0
VERTEX
  5
5E8
330
5CF
100
AcDbEntity
  8
Sichtbare Kanten(TC_020513_DIN)
100
AcDbVertex
100
AcDb2dVertex
 10
247.2263808715048
 20
149.6274926180074
 30
0.0
  0
VERTEX
  5
5E9
330
5CF
100
AcDbEntity
  8
Sichtbare Kanten(TC_020513_DIN)
100
AcDbVertex
100
AcDb2dVertex
 10
247.2369356620016
 20
149.6043105835149
 30
0.0
  0
SEQEND
  5
5D2
330
5CF
100
AcDbEntity
  8
Sichtbare Kanten(TC_020513_DIN)
  0
LINE
  5
5EA
330
37
100
AcDbEntity
  8
Sichtbare Kanten(TC_020513_DIN)
100
AcDbLine
 10
246.4897633255233
 20
150.1959763242853
 30
0.0
 11
247.1057671784595
 21
150.1959763242853
 31
0.0
  0
LINE
  5
5EB
330
37
100
AcDbEntity
  8
Sichtbare Kanten(TC_020513_DIN)
100
AcDbLine
 10
245.7057671784595
 20
150.1959763242853
 30
0.0
 11
246.4897633255233
 21
150.1959763242853
 31
0.0
  0
LINE
  5
5EC
330
37
100
AcDbEntity
  8
Sichtbare Kanten(TC_020513_DIN)
100
AcDbLine
 10
214.4391298758649
 20
134.2575131027803
 30
0.0
 11
214.4391298758649
 21
134.1575131027803
 31
0.0
  0
LINE
  5
5ED
330
37
100
AcDbEntity
  8
Sichtbare Kanten(TC_020513_DIN)
100
AcDbLine
 10
217.3391298758649
 20
134.1575131027803
 30
0.0
 11
217.3391298758649
 21
134.2575131027803
 31
0.0
  0
POLYLINE
  5
5EE
330
37
100
AcDbEntity
  8
Sichtbare Kanten(TC_020513_DIN)
100
AcDb2dPolyline
 66
     1
 10
0.0
 20
0.0
 30
0.0
 70
   128
  0
VERTEX
  5
5EF
330
5EE
100
AcDbEntity
  8
Sichtbare Kanten(TC_020513_DIN)
100
AcDbVertex
100
AcDb2dVertex
 10
246.1964483725731
 20
161.756153296871
 30
0.0
  0
VERTEX
  5
5F0
330
5EE
100
AcDbEntity
  8
Sichtbare Kanten(TC_020513_DIN)
100
AcDbVertex
100
AcDb2dVertex
 10
246.2621613013451
 20
161.8479706758688
 30
0.0
  0
VERTEX
  5
5F2
330
5EE
100
AcDbEntity
  8
Sichtbare Kanten(TC_020513_DIN)
100
AcDbVertex
100
AcDb2dVertex
 10
246.3315935599511
 20
161.9371499532888
 30
0.0
  0
VERTEX
  5
5F3
330
5EE
100
AcDbEntity
  8
Sichtbare Kanten(TC_020513_DIN)
100
AcDbVertex
100
AcDb2dVertex
 10
246.4046712386315
 20
162.0235719198416
 30
0.0
  0
VERTEX
  5
5F4
330
5EE
100
AcDbEntity
  8
Sichtbare Kanten(TC_020513_DIN)
100
AcDbVertex
100
AcDb2dVertex
 10
246.4812798964684
 20
162.1070744508932
 30
0.0
  0
VERTEX
  5
5F5
330
5EE
100
AcDbEntity
  8
Sichtbare Kanten(TC_020513_DIN)
100
AcDbVertex
100
AcDb2dVertex
 10
246.56109766838
 20
162.1873034948538
 30
0.0
  0
VERTEX
  5
5F6
330
5EE
100
AcDbEntity
  8
Sichtbare Kanten(TC_020513_DIN)
100
AcDbVertex
100
AcDb2dVertex
 10
246.6439767348473
 20
162.2641386503408
 30
0.0
  0
VERTEX
  5
5F7
330
5EE
100
AcDbEntity
  8
Sichtbare Kanten(TC_020513_DIN)
100
AcDbVertex
100
AcDb2dVertex
 10
246.7298050391381
 20
162.3374964708517
 30
0.0
  0
VERTEX
  5
5F8
330
5EE
100
AcDbEntity
  8
Sichtbare Kanten(TC_020513_DIN)
100
AcDbVertex
100
AcDb2dVertex
 10
246.8184705245202
 20
162.4072982782552
 30
0.0
  0
VERTEX
  5
5F9
330
5EE
100
AcDbEntity
  8
Sichtbare Kanten(TC_020513_DIN)
100
AcDbVertex
100
AcDb2dVertex
 10
246.9098635184472
 20
162.4734606260488
 30
0.0
  0
VERTEX
  5
5FA
330
5EE
100
AcDbEntity
  8
Sichtbare Kanten(TC_020513_DIN)
100
AcDbVertex
100
AcDb2dVertex
 10
247.0038695800012
 20
162.5359024519155
 30
0.0
  0
VERTEX
  5
5FB
330
5EE
100
AcDbEntity
  8
Sichtbare Kanten(TC_020513_DIN)
100
AcDbVertex
100
AcDb2dVertex
 10
247.1003790366357
 20
162.5945415014456
 30
0.0
  0
VERTEX
  5
5FC
330
5EE
100
AcDbEntity
  8
Sichtbare Kanten(TC_020513_DIN)
100
AcDbVertex
100
AcDb2dVertex
 10
247.1992774474328
 20
162.649296712322
 30
0.0
  0
VERTEX
  5
5FD
330
5EE
100
AcDbEntity
  8
Sichtbare Kanten(TC_020513_DIN)
100
AcDbVertex
100
AcDb2dVertex
 10
247.3004551398462
 20
162.7000858301351
 30
0.0
  0
VERTEX
  5
5FE
330
5EE
100
AcDbEntity
  8
Sichtbare Kanten(TC_020513_DIN)
100
AcDbVertex
100
AcDb2dVertex
 10
247.4037213790124
 20
162.7467944139669
 30
0.0
  0
VERTEX
  5
5FF
330
5EE
100
AcDbEntity
  8
Sichtbare Kanten(TC_020513_DIN)
100
AcDbVertex
100
AcDb2dVertex
 10
247.5087233054345
 20
162.7892579549978
 30
0.0
  0
VERTEX
  5
600
330
5EE
100
AcDbEntity
  8
Sichtbare Kanten(TC_020513_DIN)
100
AcDbVertex
100
AcDb2dVertex
 10
247.6153130995935
 20
162.8274263853262
 30
0.0
  0
VERTEX
  5
601
330
5EE
100
AcDbEntity
  8
Sichtbare Kanten(TC_020513_DIN)
100
AcDbVertex
100
AcDb2dVertex
 10
247.7233620154565
 20
162.861254405422
 30
0.0
  0
VERTEX
  5
602
330
5EE
100
AcDbEntity
  8
Sichtbare Kanten(TC_020513_DIN)
100
AcDbVertex
100
AcDb2dVertex
 10
247.8327341544336
 20
162.890699099941
 30
0.0
  0
VERTEX
  5
603
330
5EE
100
AcDbEntity
  8
Sichtbare Kanten(TC_020513_DIN)
100
AcDbVertex
100
AcDb2dVertex
 10
247.9432840811914
 20
162.9157115930746
 30
0.0
  0
VERTEX
  5
604
330
5EE
100
AcDbEntity
  8
Sichtbare Kanten(TC_020513_DIN)
100
AcDbVertex
100
AcDb2dVertex
 10
248.0547018515772
 20
162.936219167156
 30
0.0
  0
VERTEX
  5
605
330
5EE
100
AcDbEntity
  8
Sichtbare Kanten(TC_020513_DIN)
100
AcDbVertex
100
AcDb2dVertex
 10
248.1667967307275
 20
162.9521967882345
 30
0.0
  0
VERTEX
  5
606
330
5EE
100
AcDbEntity
  8
Sichtbare Kanten(TC_020513_DIN)
100
AcDbVertex
100
AcDb2dVertex
 10
248.2794328200525
 20
162.9636277670095
 30
0.0
  0
VERTEX
  5
607
330
5EE
100
AcDbEntity
  8
Sichtbare Kanten(TC_020513_DIN)
100
AcDbVertex
100
AcDb2dVertex
 10
248.3924694525903
 20
162.9704977983663
 30
0.0
  0
VERTEX
  5
608
330
5EE
100
AcDbEntity
  8
Sichtbare Kanten(TC_020513_DIN)
100
AcDbVertex
100
AcDb2dVertex
 10
248.5057683455652
 20
162.9727901930044
 30
0.0
  0
SEQEND
  5
5F1
330
5EE
100
AcDbEntity
  8
Sichtbare Kanten(TC_020513_DIN)
  0
POLYLINE
  5
609
330
37
100
AcDbEntity
  8
Sichtbare Kanten(TC_020513_DIN)
100
AcDb2dPolyline
 66
     1
 10
0.0
 20
0.0
 30
0.0
 70
   128
  0
VERTEX
  5
60A
330
609
100
AcDbEntity
  8
Sichtbare Kanten(TC_020513_DIN)
100
AcDbVertex
100
AcDb2dVertex
 10
248.5057683455652
 20
161.5727903360555
 30
0.0
  0
VERTEX
  5
60B
330
609
100
AcDbEntity
  8
Sichtbare Kanten(TC_020513_DIN)
100
AcDbVertex
100
AcDb2dVertex
 10
248.4341211783594
 20
161.5709557050893
 30
0.0
  0
VERTEX
  5
60D
330
609
100
AcDbEntity
  8
Sichtbare Kanten(TC_020513_DIN)
100
AcDbVertex
100
AcDb2dVertex
 10
248.3628077971643
 20
161.56547207777
 30
0.0
  0
VERTEX
  5
60E
330
609
100
AcDbEntity
  8
Sichtbare Kanten(TC_020513_DIN)
100
AcDbVertex
100
AcDb2dVertex
 10
248.2919617163843
 20
161.5563668722341
 30
0.0
  0
VERTEX
  5
60F
330
609
100
AcDbEntity
  8
Sichtbare Kanten(TC_020513_DIN)
100
AcDbVertex
100
AcDb2dVertex
 10
248.2217188346094
 20
161.543671082897
 30
0.0
  0
VERTEX
  5
610
330
609
100
AcDbEntity
  8
Sichtbare Kanten(TC_020513_DIN)
100
AcDbVertex
100
AcDb2dVertex
 10
248.1522198188013
 20
161.527413319988
 30
0.0
  0
VERTEX
  5
611
330
609
100
AcDbEntity
  8
Sichtbare Kanten(TC_020513_DIN)
100
AcDbVertex
100
AcDb2dVertex
 10
248.0835981833642
 20
161.5076210016439
 30
0.0
  0
VERTEX
  5
612
330
609
100
AcDbEntity
  8
Sichtbare Kanten(TC_020513_DIN)
100
AcDbVertex
100
AcDb2dVertex
 10
248.01599459526
 20
161.4843251222799
 30
0.0
  0
VERTEX
  5
613
330
609
100
AcDbEntity
  8
Sichtbare Kanten(TC_020513_DIN)
100
AcDbVertex
100
AcDb2dVertex
 10
247.9495449530786
 20
161.4575542921255
 30
0.0
  0
VERTEX
  5
614
330
609
100
AcDbEntity
  8
Sichtbare Kanten(TC_020513_DIN)
100
AcDbVertex
100
AcDb2dVertex
 10
247.8845043646997
 20
161.427395533962
 30
0.0
  0
VERTEX
  5
615
330
609
100
AcDbEntity
  8
Sichtbare Kanten(TC_020513_DIN)
100
AcDbVertex
100
AcDb2dVertex
 10
247.8212209212487
 20
161.3940169328878
 30
0.0
  0
VERTEX
  5
616
330
609
100
AcDbEntity
  8
Sichtbare Kanten(TC_020513_DIN)
100
AcDbVertex
100
AcDb2dVertex
 10
247.7598114478295
 20
161.3575055116842
 30
0.0
  0
VERTEX
  5
617
330
609
100
AcDbEntity
  8
Sichtbare Kanten(TC_020513_DIN)
100
AcDbVertex
100
AcDb2dVertex
 10
247.7003927695458
 20
161.3179411405752
 30
0.0
  0
VERTEX
  5
618
330
609
100
AcDbEntity
  8
Sichtbare Kanten(TC_020513_DIN)
100
AcDbVertex
100
AcDb2dVertex
 10
247.6430769431298
 20
161.2754072660635
 30
0.0
  0
VERTEX
  5
619
330
609
100
AcDbEntity
  8
Sichtbare Kanten(TC_020513_DIN)
100
AcDbVertex
100
AcDb2dVertex
 10
247.5879784094994
 20
161.2299861425588
 30
0.0
  0
VERTEX
  5
61A
330
609
100
AcDbEntity
  8
Sichtbare Kanten(TC_020513_DIN)
100
AcDbVertex
100
AcDb2dVertex
 10
247.5352092253868
 20
161.1817588323782
 30
0.0
  0
VERTEX
  5
61B
330
609
100
AcDbEntity
  8
Sichtbare Kanten(TC_020513_DIN)
100
AcDbVertex
100
AcDb2dVertex
 10
247.4848838317101
 20
161.1308087820242
 30
0.0
  0
VERTEX
  5
61C
330
609
100
AcDbEntity
  8
Sichtbare Kanten(TC_020513_DIN)
100
AcDbVertex
100
AcDb2dVertex
 10
247.4371691214745
 20
161.0772790426443
 30
0.0
  0
VERTEX
  5
61D
330
609
100
AcDbEntity
  8
Sichtbare Kanten(TC_020513_DIN)
100
AcDbVertex
100
AcDb2dVertex
 10
247.3923345076745
 20
161.0214759821127
 30
0.0
  0
VERTEX
  5
61E
330
609
100
AcDbEntity
  8
Sichtbare Kanten(TC_020513_DIN)
100
AcDbVertex
100
AcDb2dVertex
 10
247.3504658209984
 20
160.9635366911123
 30
0.0
  0
VERTEX
  5
61F
330
609
100
AcDbEntity
  8
Sichtbare Kanten(TC_020513_DIN)
100
AcDbVertex
100
AcDb2dVertex
 10
247.3116393553917
 20
160.9035815710256
 30
0.0
  0
VERTEX
  5
620
330
609
100
AcDbEntity
  8
Sichtbare Kanten(TC_020513_DIN)
100
AcDbVertex
100
AcDb2dVertex
 10
247.2759242522423
 20
160.841732215328
 30
0.0
  0
VERTEX
  5
621
330
609
100
AcDbEntity
  8
Sichtbare Kanten(TC_020513_DIN)
100
AcDbVertex
100
AcDb2dVertex
 10
247.2433920371239
 20
160.7781066412161
 30
0.0
  0
VERTEX
  5
622
330
609
100
AcDbEntity
  8
Sichtbare Kanten(TC_020513_DIN)
100
AcDbVertex
100
AcDb2dVertex
 10
247.214116619796
 20
160.712827634258
 30
0.0
  0
VERTEX
  5
623
330
609
100
AcDbEntity
  8
Sichtbare Kanten(TC_020513_DIN)
100
AcDbVertex
100
AcDb2dVertex
 10
247.1881719100181
 20
160.6460144037435
 30
0.0
  0
SEQEND
  5
60C
330
609
100
AcDbEntity
  8
Sichtbare Kanten(TC_020513_DIN)
  0
LINE
  5
624
330
37
100
AcDbEntity
  8
Sichtbare Kanten(TC_020513_DIN)
100
AcDbLine
 10
248.5057671784599
 20
162.1887917856549
 30
0.0
 11
248.5057671784599
 21
161.5727906553735
 31
0.0
  0
LINE
  5
625
330
37
100
AcDbEntity
  8
Sichtbare Kanten(TC_020513_DIN)
100
AcDbLine
 10
248.5057671784599
 20
162.9727906553735
 30
0.0
 11
248.5057671784599
 21
162.1887917856549
 31
0.0
  0
POLYLINE
  5
626
330
37
100
AcDbEntity
  8
Sichtbare Kanten(TC_020513_DIN)
100
AcDb2dPolyline
 66
     1
 10
0.0
 20
0.0
 30
0.0
 70
   128
  0
VERTEX
  5
627
330
626
100
AcDbEntity
  8
Sichtbare Kanten(TC_020513_DIN)
100
AcDbVertex
100
AcDb2dVertex
 10
247.1881719100181
 20
160.6460144037435
 30
0.0
  0
VERTEX
  5
628
330
626
100
AcDbEntity
  8
Sichtbare Kanten(TC_020513_DIN)
100
AcDbVertex
100
AcDb2dVertex
 10
247.1832771765892
 20
160.6321229452322
 30
0.0
  0
VERTEX
  5
62A
330
626
100
AcDbEntity
  8
Sichtbare Kanten(TC_020513_DIN)
100
AcDbVertex
100
AcDb2dVertex
 10
247.1779795157615
 20
160.6164755338857
 30
0.0
  0
VERTEX
  5
62B
330
626
100
AcDbEntity
  8
Sichtbare Kanten(TC_020513_DIN)
100
AcDbVertex
100
AcDb2dVertex
 10
247.1723623740379
 20
160.5991675371359
 30
0.0
  0
VERTEX
  5
62C
330
626
100
AcDbEntity
  8
Sichtbare Kanten(TC_020513_DIN)
100
AcDbVertex
100
AcDb2dVertex
 10
247.1665163504784
 20
160.5802990907858
 30
0.0
  0
VERTEX
  5
62D
330
626
100
AcDbEntity
  8
Sichtbare Kanten(TC_020513_DIN)
100
AcDbVertex
100
AcDb2dVertex
 10
247.1605248915855
 20
160.5599679464529
 30
0.0
  0
VERTEX
  5
62E
330
626
100
AcDbEntity
  8
Sichtbare Kanten(TC_020513_DIN)
100
AcDbVertex
100
AcDb2dVertex
 10
247.1544809806053
 20
160.5382718557546
 30
0.0
  0
VERTEX
  5
62F
330
626
100
AcDbEntity
  8
Sichtbare Kanten(TC_020513_DIN)
100
AcDbVertex
100
AcDb2dVertex
 10
247.1484680640403
 20
160.5153109544943
 30
0.0
  0
VERTEX
  5
630
330
626
100
AcDbEntity
  8
Sichtbare Kanten(TC_020513_DIN)
100
AcDbVertex
100
AcDb2dVertex
 10
247.142574356765
 20
160.4911818021963
 30
0.0
  0
VERTEX
  5
631
330
626
100
AcDbEntity
  8
Sichtbare Kanten(TC_020513_DIN)
100
AcDbVertex
100
AcDb2dVertex
 10
247.1368880736534
 20
160.4659821504782
 30
0.0
  0
VERTEX
  5
632
330
626
100
AcDbEntity
  8
Sichtbare Kanten(TC_020513_DIN)
100
AcDbVertex
100
AcDb2dVertex
 10
247.1314974295799
 20
160.439813327236
 30
0.0
  0
VERTEX
  5
633
330
626
100
AcDbEntity
  8
Sichtbare Kanten(TC_020513_DIN)
100
AcDbVertex
100
AcDb2dVertex
 10
247.1264906394188
 20
160.4127706999014
 30
0.0
  0
VERTEX
  5
634
330
626
100
AcDbEntity
  8
Sichtbare Kanten(TC_020513_DIN)
100
AcDbVertex
100
AcDb2dVertex
 10
247.1220083701317
 20
160.3855242246816
 30
0.0
  0
VERTEX
  5
635
330
626
100
AcDbEntity
  8
Sichtbare Kanten(TC_020513_DIN)
100
AcDbVertex
100
AcDb2dVertex
 10
247.118217514724
 20
160.3596367353628
 30
0.0
  0
VERTEX
  5
636
330
626
100
AcDbEntity
  8
Sichtbare Kanten(TC_020513_DIN)
100
AcDbVertex
100
AcDb2dVertex
 10
247.1150680052939
 20
160.3352000230978
 30
0.0
  0
VERTEX
  5
637
330
626
100
AcDbEntity
  8
Sichtbare Kanten(TC_020513_DIN)
100
AcDbVertex
100
AcDb2dVertex
 10
247.112500237197
 20
160.3122236246298
 30
0.0
  0
VERTEX
  5
638
330
626
100
AcDbEntity
  8
Sichtbare Kanten(TC_020513_DIN)
100
AcDbVertex
100
AcDb2dVertex
 10
247.1104522216025
 20
160.2907170767019
 30
0.0
  0
VERTEX
  5
639
330
626
100
AcDbEntity
  8
Sichtbare Kanten(TC_020513_DIN)
100
AcDbVertex
100
AcDb2dVertex
 10
247.1088691222373
 20
160.2706923002432
 30
0.0
  0
VERTEX
  5
63A
330
626
100
AcDbEntity
  8
Sichtbare Kanten(TC_020513_DIN)
100
AcDbVertex
100
AcDb2dVertex
 10
247.1076913344565
 20
160.2521564478109
 30
0.0
  0
VERTEX
  5
63B
330
626
100
AcDbEntity
  8
Sichtbare Kanten(TC_020513_DIN)
100
AcDbVertex
100
AcDb2dVertex
 10
247.1068544852439
 20
160.2351202482412
 30
0.0
  0
VERTEX
  5
63C
330
626
100
AcDbEntity
  8
Sichtbare Kanten(TC_020513_DIN)
100
AcDbVertex
100
AcDb2dVertex
 10
247.106306122512
 20
160.2195944303701
 30
0.0
  0
VERTEX
  5
63D
330
626
100
AcDbEntity
  8
Sichtbare Kanten(TC_020513_DIN)
100
AcDbVertex
100
AcDb2dVertex
 10
247.1059818732443
 20
160.2055885309408
 30
0.0
  0
VERTEX
  5
63E
330
626
100
AcDbEntity
  8
Sichtbare Kanten(TC_020513_DIN)
100
AcDbVertex
100
AcDb2dVertex
 10
247.1058221327964
 20
160.1931132787893
 30
0.0
  0
VERTEX
  5
63F
330
626
100
AcDbEntity
  8
Sichtbare Kanten(TC_020513_DIN)
100
AcDbVertex
100
AcDb2dVertex
 10
247.1057720648948
 20
160.1821770185659
 30
0.0
  0
VERTEX
  5
640
330
626
100
AcDbEntity
  8
Sichtbare Kanten(TC_020513_DIN)
100
AcDbVertex
100
AcDb2dVertex
 10
247.1057672965232
 20
160.1727904791067
 30
0.0
  0
SEQEND
  5
629
330
626
100
AcDbEntity
  8
Sichtbare Kanten(TC_020513_DIN)
  0
LINE
  5
641
330
37
100
AcDbEntity
  8
Sichtbare Kanten(TC_020513_DIN)
100
AcDbLine
 10
239.6891298758676
 20
129.6451680177877
 30
0.0
 11
240.6891298758676
 21
129.0678177485981
 31
0.0
  0
LINE
  5
642
330
37
100
AcDbEntity
  8
Sichtbare Kanten(TC_020513_DIN)
100
AcDbLine
 10
234.6891298758658
 20
129.0678177485981
 30
0.0
 11
240.6891298758676
 21
129.0678177485981
 31
0.0
  0
LINE
  5
643
330
37
100
AcDbEntity
  8
Sichtbare Kanten(TC_020513_DIN)
100
AcDbLine
 10
234.6891298758661
 20
129.6451680177877
 30
0.0
 11
239.6891298758676
 21
129.6451680177877
 31
0.0
  0
LINE
  5
644
330
37
100
AcDbEntity
  8
Sichtbare Kanten(TC_020513_DIN)
100
AcDbLine
 10
234.6891298758658
 20
129.0678177485981
 30
0.0
 11
220.4391298758658
 21
129.0678177485981
 31
0.0
  0
LINE
  5
645
330
37
100
AcDbEntity
  8
Sichtbare Kanten(TC_020513_DIN)
100
AcDbLine
 10
234.6891298758661
 20
129.6451680177877
 30
0.0
 11
220.4391298758661
 21
129.6451680177877
 31
0.0
  0
LINE
  5
646
330
37
100
AcDbEntity
  8
Sichtbare Kanten(TC_020513_DIN)
100
AcDbLine
 10
220.4391298758658
 20
129.0678177485981
 30
0.0
 11
220.4391298758658
 21
130.0622501060852
 31
0.0
  0
LINE
  5
647
330
37
100
AcDbEntity
  8
Sichtbare Kanten(TC_020513_DIN)
100
AcDbLine
 10
222.5357394840861
 20
130.7225182869773
 30
0.0
 11
234.6891298758658
 21
130.7225182869773
 31
0.0
  0
LINE
  5
648
330
37
100
AcDbEntity
  8
Sichtbare Kanten(TC_020513_DIN)
100
AcDbLine
 10
234.6891298758661
 20
130.1451680177877
 30
0.0
 11
220.7732839407191
 21
130.1451680177877
 31
0.0
  0
LINE
  5
649
330
37
100
AcDbEntity
  8
Sichtbare Kanten(TC_020513_DIN)
100
AcDbLine
 10
239.6891298758676
 20
130.1451680177877
 30
0.0
 11
239.6891298758676
 21
129.6451680177877
 31
0.0
  0
LINE
  5
64A
330
37
100
AcDbEntity
  8
Sichtbare Kanten(TC_020513_DIN)
100
AcDbLine
 10
234.6891298758661
 20
130.1451680177877
 30
0.0
 11
239.6891298758676
 21
130.1451680177877
 31
0.0
  0
LINE
  5
64B
330
37
100
AcDbEntity
  8
Sichtbare Kanten(TC_020513_DIN)
100
AcDbLine
 10
240.6891298758676
 20
130.7225182869773
 30
0.0
 11
234.6891298758658
 21
130.7225182869773
 31
0.0
  0
LINE
  5
64C
330
37
100
AcDbEntity
  8
Sichtbare Kanten(TC_020513_DIN)
100
AcDbLine
 10
240.6891298758676
 20
130.7225182869773
 30
0.0
 11
239.6891298758676
 21
130.1451680177877
 31
0.0
  0
LINE
  5
64D
330
37
100
AcDbEntity
  8
Sichtbare Kanten(TC_020513_DIN)
100
AcDbLine
 10
239.6891298758676
 20
131.6451680177877
 30
0.0
 11
240.6891298758676
 21
131.0678177485981
 31
0.0
  0
LINE
  5
64E
330
37
100
AcDbEntity
  8
Sichtbare Kanten(TC_020513_DIN)
100
AcDbLine
 10
234.6891298758658
 20
131.0678177485981
 30
0.0
 11
240.6891298758676
 21
131.0678177485981
 31
0.0
  0
LINE
  5
64F
330
37
100
AcDbEntity
  8
Sichtbare Kanten(TC_020513_DIN)
100
AcDbLine
 10
234.6891298758661
 20
131.6451680177877
 30
0.0
 11
239.6891298758676
 21
131.6451680177877
 31
0.0
  0
LINE
  5
650
330
37
100
AcDbEntity
  8
Sichtbare Kanten(TC_020513_DIN)
100
AcDbLine
 10
234.6891298758658
 20
131.0678177485981
 30
0.0
 11
223.335725709789
 21
131.0678177485981
 31
0.0
  0
LINE
  5
651
330
37
100
AcDbEntity
  8
Sichtbare Kanten(TC_020513_DIN)
100
AcDbLine
 10
234.6891298758661
 20
131.6451680177877
 30
0.0
 11
224.4492107042407
 21
131.6451680177877
 31
0.0
  0
LINE
  5
652
330
37
100
AcDbEntity
  8
Sichtbare Kanten(TC_020513_DIN)
100
AcDbLine
 10
226.0750104995956
 20
132.7225182869773
 30
0.0
 11
234.6891298758658
 21
132.7225182869773
 31
0.0
  0
LINE
  5
653
330
37
100
AcDbEntity
  8
Sichtbare Kanten(TC_020513_DIN)
100
AcDbLine
 10
234.6891298758661
 20
132.1451680177877
 30
0.0
 11
225.2611642971298
 21
132.1451680177877
 31
0.0
  0
LINE
  5
654
330
37
100
AcDbEntity
  8
Sichtbare Kanten(TC_020513_DIN)
100
AcDbLine
 10
239.6891298758676
 20
132.1451680177877
 30
0.0
 11
239.6891298758676
 21
131.6451680177877
 31
0.0
  0
LINE
  5
655
330
37
100
AcDbEntity
  8
Sichtbare Kanten(TC_020513_DIN)
100
AcDbLine
 10
234.6891298758661
 20
132.1451680177877
 30
0.0
 11
239.6891298758676
 21
132.1451680177877
 31
0.0
  0
LINE
  5
656
330
37
100
AcDbEntity
  8
Sichtbare Kanten(TC_020513_DIN)
100
AcDbLine
 10
240.6891298758676
 20
132.7225182869773
 30
0.0
 11
234.6891298758658
 21
132.7225182869773
 31
0.0
  0
LINE
  5
657
330
37
100
AcDbEntity
  8
Sichtbare Kanten(TC_020513_DIN)
100
AcDbLine
 10
240.6891298758676
 20
132.7225182869773
 30
0.0
 11
239.6891298758676
 21
132.1451680177877
 31
0.0
  0
LINE
  5
658
330
37
100
AcDbEntity
  8
Sichtbare Kanten(TC_020513_DIN)
100
AcDbLine
 10
234.6891298758658
 20
133.0678177485981
 30
0.0
 11
226.511891626553
 21
133.0678177485981
 31
0.0
  0
LINE
  5
659
330
37
100
AcDbEntity
  8
Sichtbare Kanten(TC_020513_DIN)
100
AcDbLine
 10
228.2287231162555
 20
134.7225182869773
 30
0.0
 11
234.6891298758658
 21
134.7225182869773
 31
0.0
  0
LINE
  5
65A
330
37
100
AcDbEntity
  8
Sichtbare Kanten(TC_020513_DIN)
100
AcDbLine
 10
234.6891298758658
 20
133.0678177485981
 30
0.0
 11
240.6891298758676
 21
133.0678177485981
 31
0.0
  0
LINE
  5
65B
330
37
100
AcDbEntity
  8
Sichtbare Kanten(TC_020513_DIN)
100
AcDbLine
 10
239.6891298758676
 20
133.6451680177877
 30
0.0
 11
240.6891298758676
 21
133.0678177485981
 31
0.0
  0
LINE
  5
65C
330
37
100
AcDbEntity
  8
Sichtbare Kanten(TC_020513_DIN)
100
AcDbLine
 10
234.6891298758661
 20
133.6451680177877
 30
0.0
 11
239.6891298758676
 21
133.6451680177877
 31
0.0
  0
LINE
  5
65D
330
37
100
AcDbEntity
  8
Sichtbare Kanten(TC_020513_DIN)
100
AcDbLine
 10
234.6891298758661
 20
133.6451680177877
 30
0.0
 11
227.1745532338261
 21
133.6451680177877
 31
0.0
  0
LINE
  5
65E
330
37
100
AcDbEntity
  8
Sichtbare Kanten(TC_020513_DIN)
100
AcDbLine
 10
234.6891298758661
 20
134.1451680177877
 30
0.0
 11
227.6902415617991
 21
134.1451680177877
 31
0.0
  0
LINE
  5
65F
330
37
100
AcDbEntity
  8
Sichtbare Kanten(TC_020513_DIN)
100
AcDbLine
 10
239.6891298758676
 20
134.1451680177877
 30
0.0
 11
239.6891298758676
 21
133.6451680177877
 31
0.0
  0
LINE
  5
660
330
37
100
AcDbEntity
  8
Sichtbare Kanten(TC_020513_DIN)
100
AcDbLine
 10
234.6891298758661
 20
134.1451680177877
 30
0.0
 11
239.6891298758676
 21
134.1451680177877
 31
0.0
  0
LINE
  5
661
330
37
100
AcDbEntity
  8
Sichtbare Kanten(TC_020513_DIN)
100
AcDbLine
 10
240.6891298758676
 20
134.7225182869773
 30
0.0
 11
234.6891298758658
 21
134.7225182869773
 31
0.0
  0
LINE
  5
662
330
37
100
AcDbEntity
  8
Sichtbare Kanten(TC_020513_DIN)
100
AcDbLine
 10
240.6891298758676
 20
134.7225182869773
 30
0.0
 11
239.6891298758676
 21
134.1451680177877
 31
0.0
  0
LINE
  5
663
330
37
100
AcDbEntity
  8
Sichtbare Kanten(TC_020513_DIN)
100
AcDbLine
 10
240.6891298758676
 20
133.0678177485981
 30
0.0
 11
240.6891298758676
 21
132.7225182869773
 31
0.0
  0
LINE
  5
664
330
37
100
AcDbEntity
  8
Sichtbare Kanten(TC_020513_DIN)
100
AcDbLine
 10
240.6891298758676
 20
131.0678177485981
 30
0.0
 11
240.6891298758676
 21
130.7225182869773
 31
0.0
  0
LINE
  5
665
330
37
100
AcDbEntity
  8
Sichtbare Kanten(TC_020513_DIN)
100
AcDbLine
 10
240.6891298758676
 20
129.0678177485981
 30
0.0
 11
240.6891298758676
 21
74.39516801778771
 31
0.0
  0
LINE
  5
666
330
37
100
AcDbEntity
  8
Sichtbare Kanten(TC_020513_DIN)
100
AcDbLine
 10
240.6891298758676
 20
148.3951680177877
 30
0.0
 11
240.6891298758676
 21
145.3951680177877
 31
0.0
  0
LINE
  5
667
330
37
100
AcDbEntity
  8
Sichtbare Kanten(TC_020513_DIN)
100
AcDbLine
 10
240.6891298758676
 20
138.3951680177877
 30
0.0
 11
240.6891298758676
 21
134.7225182869773
 31
0.0
  0
LINE
  5
668
330
37
100
AcDbEntity
  8
Sichtbare Kanten(TC_020513_DIN)
100
AcDbLine
 10
197.1891298758676
 20
133.0678177485981
 30
0.0
 11
197.1891298758676
 21
132.7225182869773
 31
0.0
  0
LINE
  5
669
330
37
100
AcDbEntity
  8
Sichtbare Kanten(TC_020513_DIN)
100
AcDbLine
 10
197.1891298758676
 20
131.0678177485981
 30
0.0
 11
197.1891298758676
 21
130.7225182869773
 31
0.0
  0
LINE
  5
66A
330
37
100
AcDbEntity
  8
Sichtbare Kanten(TC_020513_DIN)
100
AcDbLine
 10
197.1891298758676
 20
148.3951680177877
 30
0.0
 11
197.1891298758676
 21
134.7225182869773
 31
0.0
  0
LINE
  5
66B
330
37
100
AcDbEntity
  8
Sichtbare Kanten(TC_020513_DIN)
100
AcDbLine
 10
197.1891298758676
 20
129.0678177485981
 30
0.0
 11
197.1891298758676
 21
74.39516801778771
 31
0.0
  0
LINE
  5
66C
330
37
100
AcDbEntity
  8
Sichtbare Kanten(TC_020513_DIN)
100
AcDbLine
 10
203.1891298758658
 20
134.7225182869773
 30
0.0
 11
211.9391298758658
 21
134.7225182869773
 31
0.0
  0
LINE
  5
66D
330
37
100
AcDbEntity
  8
Sichtbare Kanten(TC_020513_DIN)
100
AcDbLine
 10
217.4391298758658
 20
134.2965558366537
 30
0.0
 11
217.4391298758658
 21
133.0678177485981
 31
0.0
  0
LINE
  5
66E
330
37
100
AcDbEntity
  8
Sichtbare Kanten(TC_020513_DIN)
100
AcDbLine
 10
217.4391298758658
 20
133.0678177485981
 30
0.0
 11
217.3391298758658
 21
133.0678177485981
 31
0.0
  0
LINE
  5
66F
330
37
100
AcDbEntity
  8
Sichtbare Kanten(TC_020513_DIN)
100
AcDbLine
 10
214.4391298758658
 20
133.0678177485981
 30
0.0
 11
214.2200191169961
 21
133.0678177485981
 31
0.0
  0
LINE
  5
670
330
37
100
AcDbEntity
  8
Sichtbare Kanten(TC_020513_DIN)
100
AcDbLine
 10
211.9391298758658
 20
133.0678177485981
 30
0.0
 11
203.1891298758658
 21
133.0678177485981
 31
0.0
  0
LINE
  5
671
330
37
100
AcDbEntity
  8
Sichtbare Kanten(TC_020513_DIN)
100
AcDbLine
 10
197.1891298758676
 20
133.0678177485981
 30
0.0
 11
203.1891298758658
 21
133.0678177485981
 31
0.0
  0
LINE
  5
672
330
37
100
AcDbEntity
  8
Sichtbare Kanten(TC_020513_DIN)
100
AcDbLine
 10
197.1891298758676
 20
134.7225182869773
 30
0.0
 11
198.1891298758676
 21
134.1451680177877
 31
0.0
  0
LINE
  5
673
330
37
100
AcDbEntity
  8
Sichtbare Kanten(TC_020513_DIN)
100
AcDbLine
 10
203.1891298758658
 20
134.7225182869773
 30
0.0
 11
197.1891298758675
 21
134.7225182869773
 31
0.0
  0
LINE
  5
674
330
37
100
AcDbEntity
  8
Sichtbare Kanten(TC_020513_DIN)
100
AcDbLine
 10
203.1891298758661
 20
134.1451680177877
 30
0.0
 11
198.1891298758675
 21
134.1451680177877
 31
0.0
  0
LINE
  5
675
330
37
100
AcDbEntity
  8
Sichtbare Kanten(TC_020513_DIN)
100
AcDbLine
 10
203.1891298758661
 20
133.6451680177877
 30
0.0
 11
211.9391298758661
 21
133.6451680177877
 31
0.0
  0
LINE
  5
676
330
37
100
AcDbEntity
  8
Sichtbare Kanten(TC_020513_DIN)
100
AcDbLine
 10
214.2070790682972
 20
133.6451680177877
 30
0.0
 11
214.4391298758661
 21
133.6451680177877
 31
0.0
  0
LINE
  5
677
330
37
100
AcDbEntity
  8
Sichtbare Kanten(TC_020513_DIN)
100
AcDbLine
 10
217.3391298758661
 20
133.6451680177877
 30
0.0
 11
217.4391298758661
 21
133.6451680177877
 31
0.0
  0
LINE
  5
678
330
37
100
AcDbEntity
  8
Sichtbare Kanten(TC_020513_DIN)
100
AcDbLine
 10
203.1891298758661
 20
134.1451680177877
 30
0.0
 11
211.9391298758661
 21
134.1451680177877
 31
0.0
  0
LINE
  5
679
330
37
100
AcDbEntity
  8
Sichtbare Kanten(TC_020513_DIN)
100
AcDbLine
 10
214.3579910457819
 20
134.1451680177877
 30
0.0
 11
214.4391298758661
 21
134.1451680177877
 31
0.0
  0
LINE
  5
67A
330
37
100
AcDbEntity
  8
Sichtbare Kanten(TC_020513_DIN)
100
AcDbLine
 10
217.3391298758661
 20
134.1451680177877
 30
0.0
 11
217.4391298758661
 21
134.1451680177877
 31
0.0
  0
LINE
  5
67B
330
37
100
AcDbEntity
  8
Sichtbare Kanten(TC_020513_DIN)
100
AcDbLine
 10
198.1891298758676
 20
134.1451680177877
 30
0.0
 11
198.1891298758676
 21
133.6451680177877
 31
0.0
  0
LINE
  5
67C
330
37
100
AcDbEntity
  8
Sichtbare Kanten(TC_020513_DIN)
100
AcDbLine
 10
203.1891298758661
 20
133.6451680177877
 30
0.0
 11
198.1891298758675
 21
133.6451680177877
 31
0.0
  0
LINE
  5
67D
330
37
100
AcDbEntity
  8
Sichtbare Kanten(TC_020513_DIN)
100
AcDbLine
 10
198.1891298758676
 20
133.6451680177877
 30
0.0
 11
197.1891298758676
 21
133.0678177485981
 31
0.0
  0
LINE
  5
67E
330
37
100
AcDbEntity
  8
Sichtbare Kanten(TC_020513_DIN)
100
AcDbLine
 10
203.1891298758658
 20
132.7225182869773
 30
0.0
 11
211.9391298758658
 21
132.7225182869773
 31
0.0
  0
LINE
  5
67F
330
37
100
AcDbEntity
  8
Sichtbare Kanten(TC_020513_DIN)
100
AcDbLine
 10
214.3235673299888
 20
132.7225182869773
 30
0.0
 11
217.4391298758658
 21
132.7225182869773
 31
0.0
  0
LINE
  5
680
330
37
100
AcDbEntity
  8
Sichtbare Kanten(TC_020513_DIN)
100
AcDbLine
 10
217.4391298758658
 20
132.7225182869773
 30
0.0
 11
217.4391298758658
 21
132.4937801989217
 31
0.0
  0
LINE
  5
681
330
37
100
AcDbEntity
  8
Sichtbare Kanten(TC_020513_DIN)
100
AcDbLine
 10
211.9391298758658
 20
131.0678177485981
 30
0.0
 11
203.1891298758658
 21
131.0678177485981
 31
0.0
  0
LINE
  5
682
330
37
100
AcDbEntity
  8
Sichtbare Kanten(TC_020513_DIN)
100
AcDbLine
 10
203.1891298758658
 20
130.7225182869773
 30
0.0
 11
211.9698835967637
 21
130.7225182869773
 31
0.0
  0
LINE
  5
683
330
37
100
AcDbEntity
  8
Sichtbare Kanten(TC_020513_DIN)
100
AcDbLine
 10
217.4391298758658
 20
129.6678377703146
 30
0.0
 11
217.4391298758658
 21
129.0678177485981
 31
0.0
  0
LINE
  5
684
330
37
100
AcDbEntity
  8
Sichtbare Kanten(TC_020513_DIN)
100
AcDbLine
 10
217.4391298758658
 20
129.0678177485981
 30
0.0
 11
203.1891298758658
 21
129.0678177485981
 31
0.0
  0
LINE
  5
685
330
37
100
AcDbEntity
  8
Sichtbare Kanten(TC_020513_DIN)
100
AcDbLine
 10
197.1891298758676
 20
130.7225182869773
 30
0.0
 11
198.1891298758676
 21
130.1451680177877
 31
0.0
  0
LINE
  5
686
330
37
100
AcDbEntity
  8
Sichtbare Kanten(TC_020513_DIN)
100
AcDbLine
 10
203.1891298758658
 20
130.7225182869773
 30
0.0
 11
197.1891298758675
 21
130.7225182869773
 31
0.0
  0
LINE
  5
687
330
37
100
AcDbEntity
  8
Sichtbare Kanten(TC_020513_DIN)
100
AcDbLine
 10
203.1891298758661
 20
130.1451680177877
 30
0.0
 11
198.1891298758675
 21
130.1451680177877
 31
0.0
  0
LINE
  5
688
330
37
100
AcDbEntity
  8
Sichtbare Kanten(TC_020513_DIN)
100
AcDbLine
 10
203.1891298758661
 20
129.6451680177877
 30
0.0
 11
217.4391298758661
 21
129.6451680177877
 31
0.0
  0
LINE
  5
689
330
37
100
AcDbEntity
  8
Sichtbare Kanten(TC_020513_DIN)
100
AcDbLine
 10
203.1891298758661
 20
130.1451680177877
 30
0.0
 11
213.2144442404447
 21
130.1451680177877
 31
0.0
  0
LINE
  5
68A
330
37
100
AcDbEntity
  8
Sichtbare Kanten(TC_020513_DIN)
100
AcDbLine
 10
198.1891298758676
 20
130.1451680177877
 30
0.0
 11
198.1891298758676
 21
129.6451680177877
 31
0.0
  0
LINE
  5
68B
330
37
100
AcDbEntity
  8
Sichtbare Kanten(TC_020513_DIN)
100
AcDbLine
 10
203.1891298758661
 20
129.6451680177877
 30
0.0
 11
198.1891298758675
 21
129.6451680177877
 31
0.0
  0
LINE
  5
68C
330
37
100
AcDbEntity
  8
Sichtbare Kanten(TC_020513_DIN)
100
AcDbLine
 10
197.1891298758676
 20
129.0678177485981
 30
0.0
 11
203.1891298758658
 21
129.0678177485981
 31
0.0
  0
LINE
  5
68D
330
37
100
AcDbEntity
  8
Sichtbare Kanten(TC_020513_DIN)
100
AcDbLine
 10
198.1891298758676
 20
129.6451680177877
 30
0.0
 11
197.1891298758676
 21
129.0678177485981
 31
0.0
  0
LINE
  5
68E
330
37
100
AcDbEntity
  8
Sichtbare Kanten(TC_020513_DIN)
100
AcDbLine
 10
197.1891298758676
 20
132.7225182869773
 30
0.0
 11
198.1891298758676
 21
132.1451680177877
 31
0.0
  0
LINE
  5
68F
330
37
100
AcDbEntity
  8
Sichtbare Kanten(TC_020513_DIN)
100
AcDbLine
 10
203.1891298758658
 20
132.7225182869773
 30
0.0
 11
197.1891298758675
 21
132.7225182869773
 31
0.0
  0
LINE
  5
690
330
37
100
AcDbEntity
  8
Sichtbare Kanten(TC_020513_DIN)
100
AcDbLine
 10
203.1891298758661
 20
132.1451680177877
 30
0.0
 11
198.1891298758675
 21
132.1451680177877
 31
0.0
  0
LINE
  5
691
330
37
100
AcDbEntity
  8
Sichtbare Kanten(TC_020513_DIN)
100
AcDbLine
 10
203.1891298758661
 20
131.6451680177877
 30
0.0
 11
211.9391298758661
 21
131.6451680177877
 31
0.0
  0
LINE
  5
692
330
37
100
AcDbEntity
  8
Sichtbare Kanten(TC_020513_DIN)
100
AcDbLine
 10
203.1891298758661
 20
132.1451680177877
 30
0.0
 11
211.9391298758661
 21
132.1451680177877
 31
0.0
  0
LINE
  5
693
330
37
100
AcDbEntity
  8
Sichtbare Kanten(TC_020513_DIN)
100
AcDbLine
 10
214.7143850044745
 20
132.1451680177877
 30
0.0
 11
217.1638747472577
 21
132.1451680177877
 31
0.0
  0
LINE
  5
694
330
37
100
AcDbEntity
  8
Sichtbare Kanten(TC_020513_DIN)
100
AcDbLine
 10
198.1891298758676
 20
132.1451680177877
 30
0.0
 11
198.1891298758676
 21
131.6451680177877
 31
0.0
  0
LINE
  5
695
330
37
100
AcDbEntity
  8
Sichtbare Kanten(TC_020513_DIN)
100
AcDbLine
 10
203.1891298758661
 20
131.6451680177877
 30
0.0
 11
198.1891298758675
 21
131.6451680177877
 31
0.0
  0
LINE
  5
696
330
37
100
AcDbEntity
  8
Sichtbare Kanten(TC_020513_DIN)
100
AcDbLine
 10
197.1891298758676
 20
131.0678177485981
 30
0.0
 11
203.1891298758658
 21
131.0678177485981
 31
0.0
  0
LINE
  5
697
330
37
100
AcDbEntity
  8
Sichtbare Kanten(TC_020513_DIN)
100
AcDbLine
 10
198.1891298758676
 20
131.6451680177877
 30
0.0
 11
197.1891298758676
 21
131.0678177485981
 31
0.0
  0
CIRCLE
  5
698
330
37
100
AcDbEntity
  8
Sichtbare Kanten(TC_020513_DIN)
100
AcDbCircle
 10
218.9391298758639
 20
144.3951680177877
 30
0.0
 40
4.700000000000002
  0
LINE
  5
699
330
37
100
AcDbEntity
  8
Sichtbare Kanten(TC_020513_DIN)
100
AcDbLine
 10
203.1891298758664
 20
72.39516801778771
 30
0.0
 11
234.6891298758664
 21
72.39516801778771
 31
0.0
  0
LINE
  5
69A
330
37
100
AcDbEntity
  8
Sichtbare Kanten(TC_020513_DIN)
100
AcDbLine
 10
203.1891298758664
 20
72.39516801778771
 30
0.0
 11
199.1891298758676
 21
72.39516801778771
 31
0.0
  0
LINE
  5
69B
330
37
100
AcDbEntity
  8
Sichtbare Kanten(TC_020513_DIN)
100
AcDbLine
 10
238.6891298758676
 20
72.39516801778771
 30
0.0
 11
234.6891298758664
 21
72.39516801778771
 31
0.0
  0
ARC
  5
69C
330
37
100
AcDbEntity
  8
Sichtbare Kanten(TC_020513_DIN)
100
AcDbCircle
 10
199.1891298758676
 20
74.39516801778772
 30
0.0
 40
2.00000000000001
100
AcDbArc
 50
180.0
 51
270.0
  0
ARC
  5
69D
330
37
100
AcDbEntity
  8
Sichtbare Kanten(TC_020513_DIN)
100
AcDbCircle
 10
238.6891298758676
 20
74.39516801778772
 30
0.0
 40
2.00000000000001
100
AcDbArc
 50
270.0
 51
0.0
  0
LINE
  5
69E
330
37
100
AcDbEntity
  8
Sichtbare Kanten(TC_020513_DIN)
100
AcDbLine
 10
240.9391298758675
 20
148.3951680177877
 30
0.0
 11
234.9391298758658
 21
148.3951680177877
 31
0.0
  0
LINE
  5
69F
330
37
100
AcDbEntity
  8
Sichtbare Kanten(TC_020513_DIN)
100
AcDbLine
 10
202.9391298758657
 20
148.3951680177877
 30
0.0
 11
213.1945672293277
 21
148.3951680177877
 31
0.0
  0
LINE
  5
6A0
330
37
100
AcDbEntity
  8
Sichtbare Kanten(TC_020513_DIN)
100
AcDbLine
 10
229.2836380045814
 20
148.3951680177877
 30
0.0
 11
234.9391298758657
 21
148.3951680177877
 31
0.0
  0
LINE
  5
6A1
330
37
100
AcDbEntity
  8
Sichtbare Kanten(TC_020513_DIN)
100
AcDbLine
 10
202.9391298758657
 20
148.3951680177877
 30
0.0
 11
196.9391298758674
 21
148.3951680177877
 31
0.0
  0
LINE
  5
6A2
330
37
100
AcDbEntity
  8
Sichtbare Kanten(TC_020513_DIN)
100
AcDbLine
 10
240.9391298758675
 20
153.3951680177877
 30
0.0
 11
240.9391298758675
 21
148.3951680177877
 31
0.0
  0
LINE
  5
6A3
330
37
100
AcDbEntity
  8
Sichtbare Kanten(TC_020513_DIN)
100
AcDbLine
 10
196.9391298758674
 20
153.3951680177877
 30
0.0
 11
196.9391298758674
 21
148.3951680177877
 31
0.0
  0
LINE
  5
6A4
330
37
100
AcDbEntity
  8
Sichtbare Kanten(TC_020513_DIN)
100
AcDbLine
 10
196.9391298758674
 20
153.3951680177877
 30
0.0
 11
202.9391298758657
 21
153.3951680177877
 31
0.0
  0
LINE
  5
6A5
330
37
100
AcDbEntity
  8
Sichtbare Kanten(TC_020513_DIN)
100
AcDbLine
 10
222.6323754974889
 20
153.3951680177877
 30
0.0
 11
202.9391298758657
 21
153.3951680177877
 31
0.0
  0
LINE
  5
6A6
330
37
100
AcDbEntity
  8
Sichtbare Kanten(TC_020513_DIN)
100
AcDbLine
 10
235.604736060353
 20
153.3951680177877
 30
0.0
 11
240.9391298758675
 21
153.3951680177877
 31
0.0
  0
LINE
  5
6A7
330
37
100
AcDbEntity
  8
Sichtbare Kanten(TC_020513_DIN)
100
AcDbLine
 10
249.6280187647554
 20
132.178530715197
 30
0.0
 11
252.7391298758684
 21
132.178530715197
 31
0.0
  0
LINE
  5
6A8
330
37
100
AcDbEntity
  8
Sichtbare Kanten(TC_020513_DIN)
100
AcDbLine
 10
249.6280187647554
 20
132.178530715197
 30
0.0
 11
249.2391298758663
 21
132.178530715197
 31
0.0
  0
LINE
  5
6A9
330
37
100
AcDbEntity
  8
Sichtbare Kanten(TC_020513_DIN)
100
AcDbLine
 10
242.2391298758681
 20
132.1785307151969
 30
0.0
 11
242.2014749608605
 21
132.1785307151969
 31
0.0
  0
LINE
  5
6AA
330
37
100
AcDbEntity
  8
Sichtbare Kanten(TC_020513_DIN)
100
AcDbLine
 10
252.7391298758684
 20
132.1785307151969
 30
0.0
 11
252.7391298758684
 21
133.5785307151969
 31
0.0
  0
LINE
  5
6AB
330
37
100
AcDbEntity
  8
Sichtbare Kanten(TC_020513_DIN)
100
AcDbLine
 10
242.1014749608605
 20
131.2408758001896
 30
0.0
 11
240.7014749608606
 21
131.2408758001896
 31
0.0
  0
LINE
  5
6AC
330
37
100
AcDbEntity
  8
Sichtbare Kanten(TC_020513_DIN)
100
AcDbLine
 10
240.7014749608606
 20
132.0785307151969
 30
0.0
 11
240.7014749608606
 21
131.2408758001896
 31
0.0
  0
LINE
  5
6AD
330
37
100
AcDbEntity
  8
Sichtbare Kanten(TC_020513_DIN)
100
AcDbLine
 10
242.1014749608605
 20
132.0785307151969
 30
0.0
 11
242.1014749608605
 21
131.2408758001896
 31
0.0
  0
LINE
  5
6AE
330
37
100
AcDbEntity
  8
Sichtbare Kanten(TC_020513_DIN)
100
AcDbLine
 10
242.2391298758681
 20
133.5785307151969
 30
0.0
 11
242.2014749608605
 21
133.5785307151969
 31
0.0
  0
LINE
  5
6AF
330
37
100
AcDbEntity
  8
Sichtbare Kanten(TC_020513_DIN)
100
AcDbLine
 10
249.6280187647554
 20
133.5785307151969
 30
0.0
 11
249.2391298758663
 21
133.5785307151969
 31
0.0
  0
LINE
  5
6B0
330
37
100
AcDbEntity
  8
Sichtbare Kanten(TC_020513_DIN)
100
AcDbLine
 10
249.6280187647554
 20
133.5785307151969
 30
0.0
 11
252.7391298758684
 21
133.5785307151969
 31
0.0
  0
CIRCLE
  5
6B1
330
37
100
AcDbEntity
  8
Sichtbare Kanten(TC_020513_DIN)
100
AcDbCircle
 10
215.9391298758643
 20
133.3951680177877
 30
0.0
 40
1.75
  0
LINE
  5
6B2
330
37
100
AcDbEntity
  8
Sichtbare Kanten(TC_020513_DIN)
100
AcDbLine
 10
249.2391298758643
 20
134.9785307151969
 30
0.0
 11
249.2391298758643
 21
137.3951680177877
 31
0.0
  0
ARC
  5
6B3
330
37
100
AcDbEntity
  8
Sichtbare Kanten(TC_020513_DIN)
100
AcDbCircle
 10
241.2391298758643
 20
137.3951680177877
 30
0.0
 40
7.999999999999998
100
AcDbArc
 50
0.0
 51
90.0
  0
LINE
  5
6B4
330
37
100
AcDbEntity
  8
Sichtbare Kanten(TC_020513_DIN)
100
AcDbLine
 10
241.2391298758643
 20
145.3951680177877
 30
0.0
 11
228.9391298758643
 21
145.3951680177877
 31
0.0
  0
ARC
  5
6B5
330
37
100
AcDbEntity
  8
Sichtbare Kanten(TC_020513_DIN)
100
AcDbCircle
 10
228.9391298758643
 20
145.8951680177877
 30
0.0
 40
0.4999999999999974
100
AcDbArc
 50
220.0290181764505
 51
270.0
  0
ARC
  5
6B6
330
37
100
AcDbEntity
  8
Sichtbare Kanten(TC_020513_DIN)
100
AcDbCircle
 10
213.2418945389328
 20
132.7100702639981
 30
0.0
 40
19.99999999999997
100
AcDbArc
 50
40.02901817645286
 51
64.00779443620876
  0
ARC
  5
6B7
330
37
100
AcDbEntity
  8
Sichtbare Kanten(TC_020513_DIN)
100
AcDbCircle
 10
218.9391298758643
 20
144.3951680177877
 30
0.0
 40
7.000000000000001
100
AcDbArc
 50
64.00779443620884
 51
180.0
  0
LINE
  5
6B8
330
37
100
AcDbEntity
  8
Sichtbare Kanten(TC_020513_DIN)
100
AcDbLine
 10
211.9391298758643
 20
144.3951680177877
 30
0.0
 11
211.9391298758643
 21
130.8951680177877
 31
0.0
  0
ARC
  5
6B9
330
37
100
AcDbEntity
  8
Sichtbare Kanten(TC_020513_DIN)
100
AcDbCircle
 10
212.4391298758643
 20
130.8951680177877
 30
0.0
 40
0.5000000000000038
100
AcDbArc
 50
180.0
 51
251.6923269007138
  0
ARC
  5
6BA
330
37
100
AcDbEntity
  8
Sichtbare Kanten(TC_020513_DIN)
100
AcDbCircle
 10
216.9938640905801
 20
144.6612275931817
 30
0.0
 40
15.0
100
AcDbArc
 50
251.6923269007129
 51
334.1179484035667
  0
ARC
  5
6BB
330
37
100
AcDbEntity
  8
Sichtbare Kanten(TC_020513_DIN)
100
AcDbCircle
 10
230.9391298758643
 20
137.8951680177877
 30
0.0
 40
0.5000000000000049
100
AcDbArc
 50
90.0
 51
154.1179484035673
  0
LINE
  5
6BC
330
37
100
AcDbEntity
  8
Sichtbare Kanten(TC_020513_DIN)
100
AcDbLine
 10
230.9391298758643
 20
138.3951680177877
 30
0.0
 11
241.2391298758643
 21
138.3951680177877
 31
0.0
  0
ARC
  5
6BD
330
37
100
AcDbEntity
  8
Sichtbare Kanten(TC_020513_DIN)
100
AcDbCircle
 10
241.2391298758643
 20
137.3951680177877
 30
0.0
 40
1.000000000000003
100
AcDbArc
 50
0.0
 51
90.0
  0
LINE
  5
6BE
330
37
100
AcDbEntity
  8
Sichtbare Kanten(TC_020513_DIN)
100
AcDbLine
 10
242.2391298758643
 20
137.3951680177877
 30
0.0
 11
242.2391298758643
 21
134.9785307151969
 31
0.0
  0
LINE
  5
6BF
330
37
100
AcDbEntity
  8
Sichtbare Kanten(TC_020513_DIN)
100
AcDbLine
 10
249.2391298758652
 20
132.1785307151969
 30
0.0
 11
242.2391298758652
 21
132.1785307151969
 31
0.0
  0
LINE
  5
6C0
330
37
100
AcDbEntity
  8
Sichtbare Kanten(TC_020513_DIN)
100
AcDbLine
 10
242.2391298758652
 20
132.1785307151969
 30
0.0
 11
242.2391298758643
 21
134.9785307151969
 31
0.0
  0
LINE
  5
6C1
330
37
100
AcDbEntity
  8
Sichtbare Kanten(TC_020513_DIN)
100
AcDbLine
 10
249.2391298758644
 20
134.9785307151969
 30
0.0
 11
249.2391298758652
 21
132.1785307151969
 31
0.0
  0
ARC
  5
6C2
330
37
100
AcDbEntity
  8
Sichtbare Kanten(TC_020513_DIN)
100
AcDbCircle
 10
242.2014749608605
 20
132.0785307151969
 30
0.0
 40
0.1000000000000067
100
AcDbArc
 50
90.0
 51
180.0
  0
ARC
  5
6C3
330
37
100
AcDbEntity
  8
Sichtbare Kanten(TC_020513_DIN)
100
AcDbCircle
 10
242.2014749608605
 20
132.0785307151969
 30
0.0
 40
1.499999999999999
100
AcDbArc
 50
90.0
 51
180.0
  0
ARC
  5
6C4
330
37
100
AcDbEntity
  8
Stich 1-Linien(TC_020513_DIN)
 48
29.77123641967774
100
AcDbCircle
 10
215.9391298758643
 20
133.3951680177877
 30
0.0
 40
48.93394997172077
100
AcDbArc
 50
0.0
 51
50.43682733886234
  0
DIMENSION
  5
6C5
330
37
100
AcDbEntity
  8
Bemaßungen(TC_020513_DIN)
  6
Continuous
 62
     7
370
    25
100
AcDbDimension
  2
*D11
 10
127.9434529590938
 20
62.39516801778771
 30
0.0
 11
110.7814529590938
 21
62.39516801778771
 31
0.0
 70
   160
  1
 M32
 42
34.32399999999999
  3
STANDARD-TC_020513_DIN
100
AcDbAlignedDimension
 13
93.61945295909384
 23
72.39516801778771
 33
0.0
 14
127.9434529590938
 24
72.39516801778771
 34
0.0
 50
180.0
100
AcDbRotatedDimension
1001
ACAD
1000
DSTYLE
1002
{
1070
   271
1070
     2
1070
   272
1070
     2
1070
    48
1040
0.0
1070
    47
1040
0.0
1002
}
  0
DIMENSION
  5
78B
330
37
100
AcDbEntity
  8
Bemaßungen(TC_020513_DIN)
  6
Continuous
 62
     7
370
    25
100
AcDbDimension
  2
*D12
 10
264.8730798475851
 20
176.2730422076115
 30
0.0
 11
231.0311048617263
 21
176.2730422076115
 31
0.0
 70
   160
  1
<>
 42
67.68394997171748
  3
STANDARD-TC_020513_DIN
100
AcDbAlignedDimension
 13
197.1891298758676
 23
129.067817748598
 33
0.0
 14
264.8730798475851
 24
133.3951680177877
 34
0.0
 50
180.0
100
AcDbRotatedDimension
1001
ACAD
1000
DSTYLE
1002
{
1070
   271
1070
     0
1070
   272
1070
     2
1070
    48
1040
0.0
1070
    47
1040
0.0
1002
}
  0
DIMENSION
  5
84B
330
37
100
AcDbEntity
  8
Bemaßungen(TC_020513_DIN)
  6
Continuous
 62
     7
370
    25
100
AcDbDimension
  2
*D13
 10
181.8001380991616
 20
72.39516801778771
 30
0.0
 11
181.8001380991616
 21
112.8951680177877
 31
0.0
 70
   160
  1
<>
 42
81.00000000000001
  3
STANDARD-TC_020513_DIN
100
AcDbAlignedDimension
 13
199.9391298758666
 23
153.3951680177877
 33
0.0
 14
203.1891298758664
 24
72.39516801778771
 34
0.0
 50
270.0
100
AcDbRotatedDimension
1001
ACAD
1000
DSTYLE
1002
{
1070
   271
1070
     2
1070
   272
1070
     2
1070
    48
1040
0.0
1070
    47
1040
0.0
1002
}
  0
DIMENSION
  5
906
330
37
100
AcDbEntity
  8
Bemaßungen(TC_020513_DIN)
  6
Continuous
 62
     7
370
    25
100
AcDbDimension
  2
*D14
 10
157.5314529590938
 20
52.3951680177877
 30
0.0
 11
110.7814529590938
 21
52.3951680177877
 31
0.0
 70
   160
  1
<>
 42
93.49999999999997
  3
STANDARD-TC_020513_DIN
100
AcDbAlignedDimension
 13
64.03145295909386
 23
101.7314928831929
 33
0.0
 14
157.5314529590938
 24
74.39516801778771
 34
0.0
 50
180.0
100
AcDbRotatedDimension
1001
ACAD
1000
DSTYLE
1002
{
1070
   271
1070
     2
1070
   272
1070
     2
1070
    48
1040
0.0
1070
    47
1040
0.0
1002
}
  0
DIMENSION
  5
9C6
330
37
100
AcDbEntity
  8
Bemaßungen(TC_020513_DIN)
  6
Continuous
 62
     7
370
    25
100
AcDbDimension
  2
*D15
 10
240.6891298758676
 20
52.3951680177877
 30
0.0
 11
218.9391298758676
 21
52.3951680177877
 31
0.0
 70
   160
  1
<>
 42
43.5
  3
STANDARD-TC_020513_DIN
100
AcDbAlignedDimension
 13
197.1891298758676
 23
74.39516801778771
 33
0.0
 14
240.6891298758676
 24
74.39516801778771
 34
0.0
 50
180.0
100
AcDbRotatedDimension
1001
ACAD
1000
DSTYLE
1002
{
1070
   271
1070
     2
1070
   272
1070
     2
1070
    48
1040
0.0
1070
    47
1040
0.0
1002
}
  0
DIMENSION
  5
A8B
330
37
100
AcDbEntity
  8
Bemaßungen(TC_020513_DIN)
  6
Continuous
 62
     7
370
    25
100
AcDbDimension
  2
*D16
 10
164.5314529590939
 20
176.2730422076115
 30
0.0
 11
110.7814529590938
 21
176.2730422076115
 31
0.0
 70
   160
  1
<>
 42
107.5
  3
STANDARD-TC_020513_DIN
100
AcDbAlignedDimension
 13
57.03145295909386
 23
144.3951680177877
 33
0.0
 14
164.5314529590939
 24
144.3951680177877
 34
0.0
100
AcDbRotatedDimension
1001
ACAD
1000
DSTYLE
1002
{
1070
   271
1070
     2
1070
   272
1070
     2
1070
    48
1040
0.0
1070
    47
1040
0.0
1002
}
  0
ENDSEC
  0
SECTION
  2
OBJECTS
  0
DICTIONARY
  5
C
330
0
100
AcDbDictionary
281
     1
  3
ACAD_COLOR
350
30
  3
ACAD_GROUP
350
D
  3
ACAD_LAYOUT
350
2F
  3
ACAD_MATERIAL
350
10
  3
ACAD_MLINESTYLE
350
2C
  3
ACAD_PLOTSETTINGS
350
2E
  3
ACAD_PLOTSTYLENAME
350
E
  3
ACAD_TABLESTYLE
350
31
  3
ACAD_VISUALSTYLE
350
14
  3
AcDbVariableDictionary
350
B4B
  3
DWGPROPS
350
B51
  0
DICTIONARY
  5
B60
330
FC
100
AcDbDictionary
280
     1
281
     1
  3
ACAD_MTEXT_RT
360
B61
  0
DICTIONARY
  5
B62
330
10C
100
AcDbDictionary
280
     1
281
     1
  3
ACAD_MTEXT_RT
360
B63
  0
DICTIONARY
  5
B64
330
12D
100
AcDbDictionary
280
     1
281
     1
  3
ACAD_MTEXT_RT
360
B65
  0
DICTIONARY
  5
30
102
{ACAD_REACTORS
330
C
102
}
330
C
100
AcDbDictionary
281
     1
  0
DICTIONARY
  5
D
102
{ACAD_REACTORS
330
C
102
}
330
C
100
AcDbDictionary
281
     1
  0
DICTIONARY
  5
2F
102
{ACAD_REACTORS
330
C
102
}
330
C
100
AcDbDictionary
281
     1
  3
Layout1
350
36
  3
Layout2
350
3E
  3
Model
350
3A
  0
DICTIONARY
  5
10
102
{ACAD_REACTORS
330
C
102
}
330
C
100
AcDbDictionary
281
     1
  3
ByBlock
350
12
  3
ByLayer
350
11
  3
Global
350
13
  0
DICTIONARY
  5
2C
102
{ACAD_REACTORS
330
C
102
}
330
C
100
AcDbDictionary
281
     1
  3
Standard
350
2D
  0
DICTIONARY
  5
2E
102
{ACAD_REACTORS
330
C
102
}
330
C
100
AcDbDictionary
281
     1
  0
ACDBDICTIONARYWDFLT
  5
E
102
{ACAD_REACTORS
330
C
102
}
330
C
100
AcDbDictionary
281
     1
  3
Normal
350
F
100
AcDbDictionaryWithDefault
340
F
  0
DICTIONARY
  5
31
102
{ACAD_REACTORS
330
C
102
}
330
C
100
AcDbDictionary
281
     1
  3
Standard
350
32
  0
DICTIONARY
  5
14
102
{ACAD_REACTORS
330
C
102
}
330
C
100
AcDbDictionary
281
     1
  3
2dWireframe
350
1A
  3
3D Hidden
350
1C
  3
3dWireframe
350
1B
  3
Basic
350
19
  3
Brighten
350
20
  3
ColorChange
350
24
  3
Conceptual
350
1D
  3
Dim
350
1F
  3
Facepattern
350
23
  3
Flat
350
15
  3
FlatWithEdges
350
16
  3
Gouraud
350
17
  3
GouraudWithEdges
350
18
  3
Linepattern
350
22
  3
Realistic
350
1E
  3
Thicken
350
21
  0
DICTIONARY
  5
B4B
102
{ACAD_REACTORS
330
C
102
}
330
C
100
AcDbDictionary
281
     1
  3
CTABLESTYLE
350
B4C
  3
DIMASSOC
350
B50
  3
HIDETEXT
350
B4F
  3
INDEXCTL
350
B4E
  3
SORTENTS
350
B4D
  0
XRECORD
  5
B51
102
{ACAD_REACTORS
330
C
102
}
330
C
100
AcDbXrecord
280
     1
  1
DWGPROPS COOKIE
  2

  3

  4
Hodapp
  6

  7

  8

  9

300
Manager=
301
Firma=
302
Kategorie=
303
Bauteilnummer=MVFV 16 LG32
304
Bezeichnung=
305
Projekt=
306
Konstrukteur=Hodapp
307
Ingenieur=
308
Bevollmächtigter=
309
Kostenstelle=
 40
0.0000685416666667
 41
2454105.727857662
 42
2454105.727857662
  1

 90
       22
300
Zulieferer=
300
Benutzerstatus=
300
Konstruktionsstatus=InBearbeitung
300
Kontrolliert von=
300
Konstruktion genehmigt von=
300
Fertigung genehmigt von=
300
FirstViewScale:1=1:1
300
SaveDate=08/30/2006
300
SaveTime=14:09
300
PaperSize=A4
300
AllViewScales=1:1
300
FirstViewScale=1:1
  0
XRECORD
  5
B61
102
{ACAD_REACTORS
330
B60
102
}
330
B60
100
AcDbXrecord
280
     1
 40
45260.0
  1
Für spanlose Bearbeitung
  0
XRECORD
  5
B63
102
{ACAD_REACTORS
330
B62
102
}
330
B62
100
AcDbXrecord
280
     1
 40
49954.0
  1
Alle nicht bemaßten Radien R
  0
XRECORD
  5
B65
102
{ACAD_REACTORS
330
B64
102
}
330
B64
100
AcDbXrecord
280
     1
 40
53914.0
  1
Werkstückkanten\Pnach ISO 13715
  0
LAYOUT
  5
36
102
{ACAD_XDICTIONARY
360
B5A
102
}
102
{ACAD_REACTORS
330
2F
102
}
330
2F
100
AcDbPlotSettings
  1

  2

  4

  6

 40
0.0
 41
0.0
 42
0.0
 43
0.0
 44
0.0
 45
0.0
 46
0.0
 47
0.0
 48
0.0
 49
0.0
140
0.0
141
0.0
142
1.0
143
1.0
 70
   688
 72
     0
 73
     0
 74
     5
  7

 75
    16
147
1.0
148
0.0
149
0.0
100
AcDbLayout
  1
Layout1
 70
     1
 71
     1
 10
0.0
 20
0.0
 11
12.0
 21
9.0
 12
0.0
 22
0.0
 32
0.0
 14
0.0
 24
0.0
 34
0.0
 15
0.0
 25
0.0
 35
0.0
146
0.0
 13
0.0
 23
0.0
 33
0.0
 16
1.0
 26
0.0
 36
0.0
 17
0.0
 27
1.0
 37
0.0
 76
     0
330
33
  0
LAYOUT
  5
3E
102
{ACAD_XDICTIONARY
360
B5E
102
}
102
{ACAD_REACTORS
330
2F
102
}
330
2F
100
AcDbPlotSettings
  1

  2

  4

  6

 40
0.0
 41
0.0
 42
0.0
 43
0.0
 44
0.0
 45
0.0
 46
0.0
 47
0.0
 48
0.0
 49
0.0
140
0.0
141
0.0
142
1.0
143
1.0
 70
   688
 72
     0
 73
     0
 74
     5
  7

 75
    16
147
1.0
148
0.0
149
0.0
100
AcDbLayout
  1
Layout2
 70
     1
 71
     2
 10
0.0
 20
0.0
 11
12.0
 21
9.0
 12
0.0
 22
0.0
 32
0.0
 14
0.0
 24
0.0
 34
0.0
 15
0.0
 25
0.0
 35
0.0
146
0.0
 13
0.0
 23
0.0
 33
0.0
 16
1.0
 26
0.0
 36
0.0
 17
0.0
 27
1.0
 37
0.0
 76
     0
330
3B
  0
LAYOUT
  5
3A
102
{ACAD_XDICTIONARY
360
B5C
102
}
102
{ACAD_REACTORS
330
2F
102
}
330
2F
100
AcDbPlotSettings
  1

  2

  4

  6

 40
0.0
 41
0.0
 42
0.0
 43
0.0
 44
0.0
 45
0.0
 46
0.0
 47
0.0
 48
0.0
 49
0.0
140
0.0
141
0.0
142
1.0
143
1.0
 70
  1712
 72
     0
 73
     0
 74
     0
  7

 75
     0
147
1.0
148
0.0
149
0.0
100
AcDbLayout
  1
Model
 70
     1
 71
     0
 10
0.0
 20
0.0
 11
12.0
 21
9.0
 12
0.0
 22
0.0
 32
0.0
 14
0.0
 24
0.0
 34
0.0
 15
0.0
 25
0.0
 35
0.0
146
0.0
 13
0.0
 23
0.0
 33
0.0
 16
1.0
 26
0.0
 36
0.0
 17
0.0
 27
1.0
 37
0.0
 76
     0
330
37
  0
MATERIAL
  5
12
102
{ACAD_XDICTIONARY
360
B54
102
}
102
{ACAD_REACTORS
330
10
102
}
330
10
100
AcDbMaterial
  1
ByBlock
  0
MATERIAL
  5
11
102
{ACAD_XDICTIONARY
360
B52
102
}
102
{ACAD_REACTORS
330
10
102
}
330
10
100
AcDbMaterial
  1
ByLayer
  0
MATERIAL
  5
13
102
{ACAD_XDICTIONARY
360
B56
102
}
102
{ACAD_REACTORS
330
10
102
}
330
10
100
AcDbMaterial
  1
Global
  0
MLINESTYLE
  5
2D
102
{ACAD_REACTORS
330
2C
102
}
330
2C
100
AcDbMlineStyle
  2
STANDARD
 70
     0
  3

 62
   256
 51
90.0
 52
90.0
 71
     2
 49
0.5
 62
   256
  6
BYLAYER
 49
-0.5
 62
   256
  6
BYLAYER
  0
ACDBPLACEHOLDER
  5
F
102
{ACAD_REACTORS
330
E
102
}
330
E
  0
TABLESTYLE
  5
32
102
{ACAD_XDICTIONARY
360
B58
102
}
102
{ACAD_REACTORS
330
31
102
}
330
31
100
AcDbTableStyle
  3
Standard
 70
     0
 71
     0
 40
0.06
 41
0.06
280
     0
281
     0
  7
Standard
140
0.18
170
     2
 62
     0
 63
     7
283
     0
274
    -2
284
     1
 64
     0
275
    -2
285
     1
 65
     0
276
    -2
286
     1
 66
     0
277
    -2
287
     1
 67
     0
278
    -2
288
     1
 68
     0
279
    -2
289
     1
 69
     0
  7
Standard
140
0.25
170
     5
 62
     0
 63
     7
283
     0
274
    -2
284
     1
 64
     0
275
    -2
285
     1
 65
     0
276
    -2
286
     1
 66
     0
277
    -2
287
     1
 67
     0
278
    -2
288
     1
 68
     0
279
    -2
289
     1
 69
     0
  7
Standard
140
0.18
170
     5
 62
     0
 63
     7
283
     0
274
    -2
284
     1
 64
     0
275
    -2
285
     1
 65
     0
276
    -2
286
     1
 66
     0
277
    -2
287
     1
 67
     0
278
    -2
288
     1
 68
     0
279
    -2
289
     1
 69
     0
  0
VISUALSTYLE
  5
1A
102
{ACAD_REACTORS
330
14
102
}
330
14
100
AcDbVisualStyle
  2
2dWireframe
 70
     4
 71
     0
 72
     2
 73
     0
 90
        0
 40
-0.6
 41
-30.0
 62
     5
 63
     7
 74
     1
 91
        4
 64
     7
 65
   257
 75
     1
175
     1
 42
1.0
 92
        0
 66
   257
 43
1.0
 76
     1
 77
     6
 78
     2
 67
     7
 79
     5
170
     0
171
     0
290
     0
174
     0
 93
        1
 44
0.0
173
     0
291
     0
 45
0.0
1001
ACAD
1000
AcDbSavedByObjectVersion
1070
     0
  0
VISUALSTYLE
  5
1C
102
{ACAD_REACTORS
330
14
102
}
330
14
100
AcDbVisualStyle
  2
3D Hidden
 70
     6
 71
     1
 72
     2
 73
     2
 90
        0
 40
-0.6
 41
-30.0
 62
     5
 63
     7
 74
     2
 91
        2
 64
     7
 65
   257
 75
     2
175
     1
 42
40.0
 92
        0
 66
   257
 43
1.0
 76
     1
 77
     6
 78
     2
 67
     7
 79
     3
170
     0
171
     0
290
     0
174
     0
 93
        1
 44
0.0
173
     0
291
     0
 45
0.0
1001
ACAD
1000
AcDbSavedByObjectVersion
1070
     0
  0
VISUALSTYLE
  5
1B
102
{ACAD_REACTORS
330
14
102
}
330
14
100
AcDbVisualStyle
  2
3dWireframe
 70
     5
 71
     0
 72
     2
 73
     0
 90
        0
 40
-0.6
 41
-30.0
 62
     5
 63
     7
 74
     1
 91
        4
 64
     7
 65
   257
 75
     1
175
     1
 42
1.0
 92
        0
 66
   257
 43
1.0
 76
     1
 77
     6
 78
     2
 67
     7
 79
     5
170
     0
171
     0
290
     0
174
     0
 93
        1
 44
0.0
173
     0
291
     0
 45
0.0
1001
ACAD
1000
AcDbSavedByObjectVersion
1070
     0
  0
VISUALSTYLE
  5
19
102
{ACAD_REACTORS
330
14
102
}
330
14
100
AcDbVisualStyle
  2
Basic
 70
     7
 71
     1
 72
     0
 73
     1
 90
        0
 40
-0.6
 41
-30.0
 62
     5
 63
     7
 74
     0
 91
        4
 64
     7
 65
   257
 75
     1
175
     1
 42
1.0
 92
        8
 66
     7
 43
1.0
 76
     1
 77
     6
 78
     2
 67
     7
 79
     5
170
     0
171
     0
290
     0
174
     0
 93
        1
 44
0.0
173
     0
291
     1
 45
0.0
1001
ACAD
1000
AcDbSavedByObjectVersion
1070
     0
  0
VISUALSTYLE
  5
20
102
{ACAD_REACTORS
330
14
102
}
330
14
100
AcDbVisualStyle
  2
Brighten
 70
    12
 71
     2
 72
     2
 73
     0
 90
        0
 40
-0.6
 41
-30.0
 62
     5
 63
     7
 74
     1
 91
        4
 64
     7
 65
   257
 75
     1
175
     1
 42
1.0
 92
        8
 66
     7
 43
1.0
 76
     1
 77
     6
 78
     2
 67
     7
 79
     5
170
     0
171
     0
290
     0
174
     0
 93
        1
 44
50.0
173
     0
291
     1
 45
0.0
1001
ACAD
1000
AcDbSavedByObjectVersion
1070
     0
  0
VISUALSTYLE
  5
24
102
{ACAD_REACTORS
330
14
102
}
330
14
100
AcDbVisualStyle
  2
ColorChange
 70
    16
 71
     2
 72
     2
 73
     3
 90
        0
 40
-0.6
 41
-30.0
 62
     5
 63
     8
 74
     1
 91
        4
 64
     7
 65
   257
 75
     1
175
     1
 42
1.0
 92
        8
 66
     8
 43
1.0
 76
     1
 77
     6
 78
     2
 67
     7
 79
     5
170
     0
171
     0
290
     0
174
     0
 93
        1
 44
0.0
173
     0
291
     1
 45
0.0
1001
ACAD
1000
AcDbSavedByObjectVersion
1070
     0
  0
VISUALSTYLE
  5
1D
102
{ACAD_REACTORS
330
14
102
}
330
14
100
AcDbVisualStyle
  2
Conceptual
 70
     9
 71
     3
 72
     2
 73
     0
 90
        0
 40
-0.6
 41
-30.0
 62
     5
 63
     7
 74
     2
 91
        2
 64
     7
 65
   257
 75
     1
175
     1
 42
40.0
 92
        8
 66
     7
 43
1.0
 76
     1
 77
     6
 78
     2
 67
     7
 79
     3
170
     0
171
     0
290
     0
174
     0
 93
        1
 44
0.0
173
     0
291
     0
 45
0.0
1001
ACAD
1000
AcDbSavedByObjectVersion
1070
     0
  0
VISUALSTYLE
  5
1F
102
{ACAD_REACTORS
330
14
102
}
330
14
100
AcDbVisualStyle
  2
Dim
 70
    11
 71
     2
 72
     2
 73
     0
 90
        0
 40
-0.6
 41
-30.0
 62
     5
 63
     7
 74
     1
 91
        4
 64
     7
 65
   257
 75
     1
175
     1
 42
1.0
 92
        8
 66
     7
 43
1.0
 76
     1
 77
     6
 78
     2
 67
     7
 79
     5
170
     0
171
     0
290
     0
174
     0
 93
        1
 44
-50.0
173
     0
291
     1
 45
0.0
1001
ACAD
1000
AcDbSavedByObjectVersion
1070
     0
  0
VISUALSTYLE
  5
23
102
{ACAD_REACTORS
330
14
102
}
330
14
100
AcDbVisualStyle
  2
Facepattern
 70
    15
 71
     2
 72
     2
 73
     0
 90
        0
 40
-0.6
 41
-30.0
 62
     5
 63
     7
 74
     1
 91
        4
 64
     7
 65
   257
 75
     1
175
     1
 42
1.0
 92
        8
 66
     7
 43
1.0
 76
     1
 77
     6
 78
     2
 67
     7
 79
     5
170
     0
171
     0
290
     0
174
     0
 93
        1
 44
0.0
173
     0
291
     1
 45
0.0
1001
ACAD
1000
AcDbSavedByObjectVersion
1070
     0
  0
VISUALSTYLE
  5
15
102
{ACAD_REACTORS
330
14
102
}
330
14
100
AcDbVisualStyle
  2
Flat
 70
     0
 71
     2
 72
     1
 73
     1
 90
        2
 40
-0.6
 41
30.0
 62
     5
 63
     7
 74
     0
 91
        4
 64
     7
 65
   257
 75
     1
175
     1
 42
1.0
 92
        8
 66
     7
 43
1.0
 76
     1
 77
     6
 78
     2
 67
     7
 79
     5
170
     0
171
     0
290
     0
174
     0
 93
       13
 44
0.0
173
     0
291
     1
 45
0.0
1001
ACAD
1000
AcDbSavedByObjectVersion
1070
     0
  0
VISUALSTYLE
  5
16
102
{ACAD_REACTORS
330
14
102
}
330
14
100
AcDbVisualStyle
  2
FlatWithEdges
 70
     1
 71
     2
 72
     1
 73
     1
 90
        2
 40
-0.6
 41
30.0
 62
     5
 63
     7
 74
     1
 91
        4
 64
     7
 65
   257
 75
     1
175
     1
 42
1.0
 92
        0
 66
   257
 43
1.0
 76
     1
 77
     6
 78
     2
 67
     7
 79
     5
170
     0
171
     0
290
     0
174
     0
 93
       13
 44
0.0
173
     0
291
     1
 45
0.0
1001
ACAD
1000
AcDbSavedByObjectVersion
1070
     0
  0
VISUALSTYLE
  5
17
102
{ACAD_REACTORS
330
14
102
}
330
14
100
AcDbVisualStyle
  2
Gouraud
 70
     2
 71
     2
 72
     2
 73
     1
 90
        2
 40
-0.6
 41
30.0
 62
     5
 63
     7
 74
     0
 91
        4
 64
     7
 65
   257
 75
     1
175
     1
 42
1.0
 92
        0
 66
     7
 43
1.0
 76
     1
 77
     6
 78
     2
 67
     7
 79
     5
170
     0
171
     0
290
     0
174
     0
 93
       13
 44
0.0
173
     0
291
     1
 45
0.0
1001
ACAD
1000
AcDbSavedByObjectVersion
1070
     0
  0
VISUALSTYLE
  5
18
102
{ACAD_REACTORS
330
14
102
}
330
14
100
AcDbVisualStyle
  2
GouraudWithEdges
 70
     3
 71
     2
 72
     2
 73
     1
 90
        2
 40
-0.6
 41
30.0
 62
     5
 63
     7
 74
     1
 91
        4
 64
     7
 65
   257
 75
     1
175
     1
 42
1.0
 92
        0
 66
   257
 43
1.0
 76
     1
 77
     6
 78
     2
 67
     7
 79
     5
170
     0
171
     0
290
     0
174
     0
 93
       13
 44
0.0
173
     0
291
     1
 45
0.0
1001
ACAD
1000
AcDbSavedByObjectVersion
1070
     0
  0
VISUALSTYLE
  5
22
102
{ACAD_REACTORS
330
14
102
}
330
14
100
AcDbVisualStyle
  2
Linepattern
 70
    14
 71
     2
 72
     2
 73
     0
 90
        0
 40
-0.6
 41
-30.0
 62
     5
 63
     7
 74
     1
 91
        4
 64
     7
 65
   257
 75
     7
175
     7
 42
1.0
 92
        8
 66
     7
 43
1.0
 76
     1
 77
     6
 78
     2
 67
     7
 79
     5
170
     0
171
     0
290
     0
174
     0
 93
        1
 44
0.0
173
     0
291
     1
 45
0.0
1001
ACAD
1000
AcDbSavedByObjectVersion
1070
     0
  0
VISUALSTYLE
  5
1E
102
{ACAD_REACTORS
330
14
102
}
330
14
100
AcDbVisualStyle
  2
Realistic
 70
     8
 71
     2
 72
     2
 73
     0
 90
        0
 40
-0.6
 41
-30.0
 62
     5
 63
     7
 74
     1
 91
        0
 64
     7
 65
   257
 75
     1
175
     1
 42
1.0
 92
        8
 66
     8
 43
1.0
 76
     1
 77
     6
 78
     2
 67
     7
 79
     5
170
     0
171
     0
290
     0
174
     0
 93
       13
 44
0.0
173
     0
291
     0
 45
0.0
1001
ACAD
1000
AcDbSavedByObjectVersion
1070
     0
  0
VISUALSTYLE
  5
21
102
{ACAD_REACTORS
330
14
102
}
330
14
100
AcDbVisualStyle
  2
Thicken
 70
    13
 71
     2
 72
     2
 73
     0
 90
        0
 40
-0.6
 41
-30.0
 62
     5
 63
     7
 74
     1
 91
        4
 64
     7
 65
   257
 75
     1
175
     1
 42
1.0
 92
       12
 66
     7
 43
1.0
 76
     1
 77
     6
 78
     2
 67
     7
 79
     5
170
     0
171
     0
290
     0
174
     0
 93
        1
 44
0.0
173
     0
291
     1
 45
0.0
1001
ACAD
1000
AcDbSavedByObjectVersion
1070
     0
  0
DICTIONARYVAR
  5
B4C
102
{ACAD_REACTORS
330
B4B
102
}
330
B4B
100
DictionaryVariables
280
     0
  1
STANDARD
  0
DICTIONARYVAR
  5
B50
102
{ACAD_REACTORS
330
B4B
102
}
330
B4B
100
DictionaryVariables
280
     0
  1
1
  0
DICTIONARYVAR
  5
B4F
102
{ACAD_REACTORS
330
B4B
102
}
330
B4B
100
DictionaryVariables
280
     0
  1
1
  0
DICTIONARYVAR
  5
B4E
102
{ACAD_REACTORS
330
B4B
102
}
330
B4B
100
DictionaryVariables
280
     0
  1
0
  0
DICTIONARYVAR
  5
B4D
102
{ACAD_REACTORS
330
B4B
102
}
330
B4B
100
DictionaryVariables
280
     0
  1
127
  0
DICTIONARY
  5
B5A
330
36
100
AcDbDictionary
280
     1
281
     1
  3
ACAD_XREC_ROUNDTRIP
360
B5B
  0
DICTIONARY
  5
B5E
330
3E
100
AcDbDictionary
280
     1
281
     1
  3
ACAD_XREC_ROUNDTRIP
360
B5F
  0
DICTIONARY
  5
B5C
330
3A
100
AcDbDictionary
280
     1
281
     1
  3
ACAD_XREC_ROUNDTRIP
360
B5D
  0
DICTIONARY
  5
B54
330
12
100
AcDbDictionary
280
     1
281
     1
  3
ACAD_XREC_ROUNDTRIP
360
B55
  0
DICTIONARY
  5
B52
330
11
100
AcDbDictionary
280
     1
281
     1
  3
ACAD_XREC_ROUNDTRIP
360
B53
  0
DICTIONARY
  5
B56
330
13
100
AcDbDictionary
280
     1
281
     1
  3
ACAD_XREC_ROUNDTRIP
360
B57
  0
DICTIONARY
  5
B58
330
32
100
AcDbDictionary
280
     1
281
     1
  3
ACAD_XREC_ROUNDTRIP
360
B59
  0
XRECORD
  5
B5B
102
{ACAD_REACTORS
330
B5A
102
}
330
B5A
100
AcDbXrecord
280
     1
102
SHADEPLOT
 70
     0
102
SHADEPLOTRESLEVEL
 70
     2
102
SHADEPLOTCUSTOMDPI
 70
   300
  0
XRECORD
  5
B5F
102
{ACAD_REACTORS
330
B5E
102
}
330
B5E
100
AcDbXrecord
280
     1
102
SHADEPLOT
 70
     0
102
SHADEPLOTRESLEVEL
 70
     2
102
SHADEPLOTCUSTOMDPI
 70
   300
  0
XRECORD
  5
B5D
102
{ACAD_REACTORS
330
B5C
102
}
330
B5C
100
AcDbXrecord
280
     1
102
SHADEPLOT
 70
     0
102
SHADEPLOTRESLEVEL
 70
     2
102
SHADEPLOTCUSTOMDPI
 70
   300
  0
XRECORD
  5
B55
102
{ACAD_REACTORS
330
B54
102
}
330
B54
100
AcDbXrecord
280
     1
102
MATERIAL
148
0.0
149
0.0
149
0.0
 93
        0
 94
       63
282
     0
 72
     1
 77
     1
171
     1
175
     1
179
     1
273
     0
  0
XRECORD
  5
B53
102
{ACAD_REACTORS
330
B52
102
}
330
B52
100
AcDbXrecord
280
     1
102
MATERIAL
148
0.0
149
0.0
149
0.0
 93
        0
 94
       63
282
     0
 72
     1
 77
     1
171
     1
175
     1
179
     1
273
     0
  0
XRECORD
  5
B57
102
{ACAD_REACTORS
330
B56
102
}
330
B56
100
AcDbXrecord
280
     1
102
MATERIAL
148
0.0
149
0.0
149
0.0
 93
        0
 94
       63
282
     0
 72
     1
 77
     1
171
     1
175
     1
179
     1
273
     0
  0
XRECORD
  5
B59
102
{ACAD_REACTORS
330
B58
102
}
330
B58
100
AcDbXrecord
280
     1
102
ACAD_ROUNDTRIP_PRE2007_TABLESTYLE
 90
      512
 91
        0
  1

 92
      512
 93
        0
  2

 94
      512
 95
        0
  3

  0
ENDSEC
  0
EOF
